<?xml version="1.0" standalone="no"?>
<!DOCTYPE svg PUBLIC "-//W3C//DTD SVG 1.1//EN" "http://www.w3.org/Graphics/SVG/1.1/DTD/svg11.dtd">
<svg xmlns="http://www.w3.org/2000/svg">
<metadata>Copyright (C) 2021 by original authors @ fontello.com</metadata>
<defs>
<font id="fontello" horiz-adv-x="1000" >
<font-face font-family="fontello" font-weight="400" font-stretch="normal" units-per-em="1000" ascent="850" descent="-150" />
<missing-glyph horiz-adv-x="1000" />
<glyph glyph-name="av" unicode="&#xe800;" d="M293 101l463 249-463 249z m89 349l185-100-185-100z m-311-600h857a71 71 0 0 1 71 71v857a71 71 0 0 1-70 72h-857a71 71 0 0 1-72-71v-857a71 71 0 0 1 71-72z m18 911h822v-822h-822z" horiz-adv-x="1000" />

<glyph glyph-name="award" unicode="&#xe801;" d="M866 483a363 363 0 1 1-629-248v-392l265 155 265-155v392a361 361 0 0 1 99 248z m-363 277a278 278 0 0 0 182-488h-2v-3a278 278 0 0 0-361 0v2h-3a278 278 0 0 0 184 490z m0-665l-181-105v178a360 360 0 0 1 361 0v-177z m-82 416l-36 77 172 81v-355h-84v223z" horiz-adv-x="1000" />

<glyph glyph-name="bankerbox" unicode="&#xe802;" d="M57 793h-57v-413h57v-473h886v473h57v413h-943z m856-326h-826v239h826z m-56-474h-713v387h713z m-518 263v87h322v-87z" horiz-adv-x="1000" />

<glyph glyph-name="blog" unicode="&#xe803;" d="M668-114a295 295 0 0 1 294 293l2 237-3 13-7 16-14 10c-17 13-103 0-127 20-16 15-19 43-23 79-9 72-15 76-26 100-41 86-151 151-227 160h-207a294 294 0 0 1-294-293v-342a294 294 0 0 1 294-293z m-334 689h162a56 56 0 1 0 0-113h-162a56 56 0 1 0 0 113z m-56-392a56 56 0 0 0 56 56h331a56 56 0 1 0 0-112h-331a56 56 0 0 0-56 56z" horiz-adv-x="1000" />

<glyph glyph-name="briefcase" unicode="&#xe804;" d="M592 838h-191a88 88 0 0 1-88-88v-96h-161a152 152 0 0 1-152-152v-486a152 152 0 0 1 152-153h696a152 152 0 0 1 152 153v486a152 152 0 0 1-152 152h-168v96a88 88 0 0 1-88 88z m-191-89h190v-95h-190z m295-184v-614h-392v614z m-607-550v486a63 63 0 0 0 63 63h64v-613h-64a63 63 0 0 0-63 64z m822 486v-486a63 63 0 0 0-63-64h-64v614h64a63 63 0 0 0 63-63z" horiz-adv-x="1000" />

<glyph glyph-name="calendar" unicode="&#xe805;" d="M892 762h-126v49a39 39 0 0 1-78 0v-49h-376v49a39 39 0 0 1-78 0v-49h-126a64 64 0 0 1-64-64v-784a64 64 0 0 1 64-64h784a64 64 0 0 1 64 64v784a64 64 0 0 1-64 64z m-658-78v-44a39 39 0 1 1 78 0v44h376v-44a39 39 0 0 1 78 0v44h112v-144h-756v144z m-112-756v533h756v-533z m260 452h292l-134-371-74 27 97 265h-181z" horiz-adv-x="1000" />

<glyph glyph-name="alarm" unicode="&#xe806;" d="M62 7a63 63 0 0 1 46-21h217s0-1 0-2a179 179 0 0 1 348 0s0 0 0 2h216a63 63 0 0 1 47 21 64 64 0 0 1 16 50 307 307 0 0 1-49 141 399 399 0 0 0-70 224 333 333 0 0 1-198 304 136 136 0 0 1-270 0 333 333 0 0 1-198-305 399 399 0 0 0-70-223 307 307 0 0 1-51-141 64 64 0 0 1 16-50z m357 653l33 11-5 34a59 59 0 0 0 0 9 54 54 0 0 0 108 0 59 59 0 0 0 0-9l-6-34 33-11a251 251 0 0 0 171-239 480 480 0 0 1 80-269 228 228 0 0 0 36-84h-739a228 228 0 0 0 36 84 480 480 0 0 1 82 270 251 251 0 0 0 171 238z m81-728a97 97 0 0 0-87 54h174a97 97 0 0 0-87-54z" horiz-adv-x="1000" />

<glyph glyph-name="bulb" unicode="&#xe807;" d="M865 485a365 365 0 1 1-564-304v-13h-31v-161l88-157h297l75 159v159h-30v13a365 365 0 0 1 165 304z m-252-254v-63h-69v232h17a42 42 0 0 1 30 12l70 70a43 43 0 1 1-61 61l-58-58-93-1-48 57a43 43 0 1 1-66-57l61-72a44 44 0 0 1 33-15h26v-231h-69v64l-23 13a278 278 0 1 0 270 0z m-204-294l-52 92v52h287v-52l-44-93z" horiz-adv-x="1000" />

<glyph glyph-name="bookmark" unicode="&#xe808;" d="M851-150v1000h-702v-1000l351 351z m-619 917h536v-718l-268 269-268-267z" horiz-adv-x="1000" />

<glyph glyph-name="chart" unicode="&#xe809;" d="M93 850v-907h907v-93h-1000v1000z m409-409l-340-340 66-65 274 274 107-108 289 291v-126h93v284h-287v-93h129l-224-224z" horiz-adv-x="1000" />

<glyph glyph-name="challenge" unicode="&#xe80a;" d="M0-150h1000v1000h-1000z m655 89h-527l264 387z m108 0l-109 159 85 125 172-253v-31z m148 822v-633l-172 253-139-204-208 307-303-446v723z m-332-289h-122l195 257-18-149h114l-178-266z" horiz-adv-x="1000" />

<glyph glyph-name="checkmark" unicode="&#xe80b;" d="M275 328l169-131 310 509 107-70-398-643-278 223z" horiz-adv-x="1000" />

<glyph glyph-name="cloudfilled" unicode="&#xe80c;" d="M988 282a285 285 0 0 0-264-283h-496a216 216 0 0 0-93 410 352 352 0 0 0 629 151 284 284 0 0 0 224-278z" horiz-adv-x="1000" />

<glyph glyph-name="checkbox" unicode="&#xe80d;" d="M796 24h-600v601h360v84h-446v-774h773v390h-87z m-383 433l-72-91 225-181 325 522-88 58-252-414z" horiz-adv-x="1000" />

<glyph glyph-name="cloud" unicode="&#xe80e;" d="M701-16h-472a229 229 0 0 0-103 435 366 366 0 0 0 360 297 362 362 0 0 0 282-134 303 303 0 0 0-67-598z m-215 647a281 281 0 0 1-278-246l-3-26-23-9a145 145 0 0 1 47-281h472a218 218 0 0 1 36 434l-17 3-10 13a278 278 0 0 1-224 112z" horiz-adv-x="1000" />

<glyph glyph-name="faq" unicode="&#xe80f;" d="M860 685l-164 165h-696v-1000h860z m-199 74l103-101h-103z m111-821h-683v823h484v-192h199z m-294 260h-114v11a142 142 0 0 0 6 48 109 109 0 0 0 19 34 663 663 0 0 0 59 53 53 53 0 0 1 25 36 33 33 0 0 1-10 25 41 41 0 0 1-29 9 49 49 0 0 1-36-14 82 82 0 0 1-18-49l-117 14a158 158 0 0 0 47 104 174 174 0 0 0 125 39 185 185 0 0 0 107-28 114 114 0 0 0 55-98 94 94 0 0 0-14-49 244 244 0 0 0-58-59 152 152 0 0 1-38-38 78 78 0 0 1-9-38z m-118-30h123v-108h-123z" horiz-adv-x="860" />

<glyph glyph-name="translate" unicode="&#xe810;" d="M983 213a120 120 0 0 1-38 47 156 156 0 0 1-58 26 347 347 0 0 1-76 7 429 429 0 0 1-75-7c-25-4-45-8-58-12l-8-2v-88h17l1 0a453 453 0 0 0 66 20 270 270 0 0 0 57 7 282 282 0 0 0 41-3 87 87 0 0 0 30-10 45 45 0 0 0 19-19 66 66 0 0 0 6-32c-35-2-68-4-99-8a313 313 0 0 1-91-22 142 142 0 0 1-61-49 138 138 0 0 1-22-80 132 132 0 0 1 41-99 139 139 0 0 1 100-39 223 223 0 0 1 54 6 218 218 0 0 1 41 14 168 168 0 0 1 31 19l6 4v-32h90v282a171 171 0 0 1-14 70z m-257-220a52 52 0 0 0 15 39 97 97 0 0 0 41 23 359 359 0 0 0 64 10c22 2 42 4 60 5v-94a272 272 0 0 0-47-29 136 136 0 0 0-60-12 88 88 0 0 0-56 14 53 53 0 0 0-17 44z m-219 458l-46-57-10 5a488 488 0 0 0-159 164v-139a70 70 0 0 0-11-42 53 53 0 0 0-27-21 169 169 0 0 0-47-4c-13 1-28 1-43 1l-8 0-22 73 17-1c20-2 36-3 48-3a112 112 0 0 1 23 2 10 10 0 0 1 0 2v279a438 438 0 0 0-168-313l-8-7-46 56 10 7a324 324 0 0 1 95 103 285 285 0 0 1 39 111h-123v68h200v115h72v-118a359 359 0 0 1 20-62 539 539 0 0 1 110 113l8 10 60-40-8-10a641 641 0 0 0-137-135 416 416 0 0 1 151-150z m170 59l60-60-77-77-60 60z m-509-628l-60 59 221 221h0l246 246 61-59-221-220h0z m432 800l18-37 40-6-29-28 7-39-36 19-35-19 6 39-29 29 40 5z m307-85l28-58 63-9-46-44 11-63-56 30-57-30 12 63-46 44 63 9z m-109 168l23-45 49-7-36-34 9-50-45 24-45-24 9 50-36 34 50 7z" horiz-adv-x="998" />

<glyph glyph-name="export" unicode="&#xe811;" d="M0-150h861v836l-165 164h-696z m763 808h-101v101z m-674 103h484v-192h199v-630h-683z m609-463l-193-193-62 63 85 85h-300v89h300l-85 86 62 63z" horiz-adv-x="861" />

<glyph glyph-name="harddrive" unicode="&#xe812;" d="M670 850h-517a153 153 0 0 1-153-153v-695a153 153 0 0 1 153-153h517a153 153 0 0 1 153 153v695a153 153 0 0 1-153 153z m64-848a64 64 0 0 0-64-63h-517a64 64 0 0 0-64 63v695a64 64 0 0 0 64 64h517a64 64 0 0 0 64-64z m-53 413a270 270 0 0 0-270-270h-6l23 29a73 73 0 0 1 14 62 182 182 0 1 1-133 29l-72-56a270 270 0 1 0 444 206z m-477-447h-41a45 45 0 0 0-45 45v41a44 44 0 0 0 17 35l207 165a44 44 0 0 0 62-62l-165-207a44 44 0 0 0-35-17z m503 43a45 45 0 1 0-44 44 44 44 0 0 0 44-44z m0 678a45 45 0 1 0-44 44 44 44 0 0 0 44-45z m-503-1a45 45 0 1 0-44 44 45 45 0 0 0 44-44z m252-273a45 45 0 1 0-45 44 45 45 0 0 0 45-44z" horiz-adv-x="822" />

<glyph glyph-name="raid" unicode="&#xe813;" d="M346 266l-84 30 84 32v-62z m40 383c-5 5-12 9-22 12-10 4-24 5-42 5-17 0-31-1-40-5-9-3-17-7-22-13-5-5-9-12-11-21-1-6-2-19-2-37v-21h150v34c0 13-1 22-2 28-2 7-5 14-9 18z m515 201v-1000h-802v1000h802z m-466-667l-44-28c-17-11-30-19-37-26-6-6-13-14-19-24-2 20-9 34-20 44-12 10-26 15-43 15-13 0-25-3-35-9-11-7-18-16-22-27-4-11-6-28-6-52v-97h226v46h-94v9c0 11 1 18 2 23 2 5 5 10 10 14 4 4 15 12 33 24l49 33v55z m0 229l-226-91v-48l226-88v48l-51 19v90l51 20v50z m0 68h-226v-46h226v46z m0 130c0 16-1 30-4 40-5 14-11 24-19 32-10 11-23 19-40 24-13 5-29 7-48 7-21 0-39-2-53-7-15-5-27-12-37-22-10-9-17-21-21-34-3-10-4-24-4-43v-83h226v86z m353-291h-238v-95h238v95z m0 197h-238v-95h238v95z m0 197h-238v-95h238v95z m-496-600c-4 3-10 4-17 4-7 0-13-2-18-6-5-4-8-10-9-17 0-4-1-15-1-33v-36h58v34c0 22-1 35-3 41-2 5-5 10-10 13z" horiz-adv-x="1000" />

<glyph glyph-name="alarmclock" unicode="&#xe814;" d="M690 536l57-58-243-243-155 156 57 57 98-98z m256 220a185 185 0 0 0 0-260l-28-29-61 60a417 417 0 0 0-32-479l82-89-60-55-79 85a417 417 0 0 0-542 4l-72-87-63 51 76 93 15-13a417 417 0 0 0-39 490l-61-60-28 29a184 184 0 0 0 259 260l29-29-60-60a417 417 0 0 0 436 0l-60 60 29 29a184 184 0 0 0 259 0z m-858-168l133 133a103 103 0 0 1-38 7 102 102 0 0 1-95-139z m749-278a337 337 0 1 1-337-338 338 338 0 0 1 337 338z m52 388a101 101 0 0 1-72 30 103 103 0 0 1-38-7l133-133a102 102 0 0 1-23 110z" horiz-adv-x="1000" />

<glyph glyph-name="datarecovery" unicode="&#xe815;" d="M75-97a76 76 0 0 0-75 77v741a76 76 0 0 0 75 76h272a75 75 0 0 0 60-31l56-74h463a76 76 0 0 0 75-76v-636a76 76 0 0 0-75-77z m-2 75h853v641h-500l-77 104h-276z m170 331l223 226 52-53-134-136h234a120 120 0 0 0 107-85 124 124 0 0 0 5-36v-118h-73v118a46 46 0 0 1-41 46h-231l134-136-52-52z" horiz-adv-x="1000" />

<glyph glyph-name="binary" unicode="&#xe816;" d="M46 574h32v183h-24c-5-23-29-30-54-30v-23h46z m147 0h31v183h-24c-5-23-28-30-54-30v-23h45z m160 187c-53 0-64-54-64-95s11-96 64-96 62 54 62 95-11 96-63 96z m0-166c-27 0-34 32-34 69s7 71 34 71 32-31 32-70-7-70-33-70z m145-25c53 0 63 54 63 96s-10 95-63 95-64-54-64-96 11-95 64-95z m0 166c26 0 34-32 34-71s-8-70-34-70-34 33-34 70 8 71 34 71z m146 25c-53 0-64-54-64-95s11-96 64-96 64 54 64 95-11 96-64 96z m0-166c-26 0-34 32-34 69s8 71 34 71 34-31 34-70-7-70-34-70z m132-21h34v183h-25c-5-23-29-30-54-30v-23h46z m160-4c53 0 64 54 64 96s-11 95-64 95-63-54-63-96 11-95 63-95z m0 166c27 0 34-32 34-70s-7-71-34-71-33 32-33 70 7 71 33 71z m-855-290c-53 0-64-54-64-96s11-96 64-96 64 54 64 96-11 96-64 96z m0-167c-26 0-33 33-33 70s7 70 33 70 35-31 35-69-9-71-35-71z m146 167c-52 0-63-54-63-96s11-96 63-96 64 54 64 96-11 96-64 96z m0-167c-26 0-33 33-33 70s7 70 33 70 34-32 34-70-6-70-34-70z m165-21v184h-23c-4-22-28-31-53-30v-24h45v-129z m128 188c-53 0-64-54-64-96s11-96 64-96 63 54 63 96-10 96-63 96z m0-167c-27 0-34 33-34 70s7 70 34 70 33-32 33-70-7-70-33-70z m87 133v-24h45v-129h33v183h-23c-6-22-30-32-55-30z m205 34c-53 0-64-54-64-96s11-96 64-96 64 54 64 96-11 96-64 96z m0-167c-26 0-33 33-33 70s7 70 33 70 34-32 34-70-8-70-34-70z m165-21v184h-24c-5-22-29-31-54-30v-24h46v-129z m-977-162v-23h46v-130h32v183h-24c-5-22-29-30-54-30z m146 0v-23h45v-130h33v183h-24c-5-22-28-30-54-30z m206 34c-53 0-64-54-64-95s11-96 64-96 63 54 63 96-11 95-63 95z m0-166c-27 0-34 32-34 71s7 69 34 69 33-32 33-69-7-71-33-71z m146 166c-53 0-64-54-64-95s11-96 64-96 63 54 63 96-10 95-63 95z m0-166c-26 0-34 32-34 71s8 69 34 69 34-32 34-69-8-71-34-71z m87 132v-23h45v-130h33v183h-25c-4-22-28-30-53-30z m205 34c-53 0-63-54-63-95s10-96 63-96 64 54 64 96-11 95-64 95z m0-166c-26 0-33 32-33 71s7 69 33 69 34-32 34-69-8-71-34-71z m146 166c-52 0-63-54-63-95s11-96 63-96 64 54 64 96-11 95-64 95z m0-166c-26 0-33 32-33 71s7 69 33 69 34-32 34-69-7-71-34-71z" horiz-adv-x="1000" />

<glyph glyph-name="doc" unicode="&#xe817;" d="M69-150h861v835l-164 165h-697z m764 808h-102v101z m-674 103h484v-192h198v-630h-682z" horiz-adv-x="1000" />

<glyph glyph-name="duplicate" unicode="&#xe818;" d="M787 836h-575v-144h-136v-828h711v144h136v692z m-27-76l83-83h-83z m-475 3h401v-105l-34 34h-367z m422-231h-84v84z m8-450v-145h-565v682h400v-160h165z m136 0h-64v474l-46 47h110z" horiz-adv-x="1000" />

<glyph glyph-name="downloaddoc" unicode="&#xe819;" d="M630 350l63-63-193-192-193 192 63 63 86-85v301h89v-301z m-561 500h697l164-165v-835h-861z m662-91v-101h102z m-572-820h682v630h-198v192h-484z" horiz-adv-x="1000" />

<glyph glyph-name="circle" unicode="&#xe81a;" d="M953 350a453 453 0 1 0-453 454 453 453 0 0 0 453-454z" horiz-adv-x="1000" />

<glyph glyph-name="auto" unicode="&#xe81b;" d="M184 438a33 33 0 0 0 48 19l75-44a74 74 0 0 0 0-128l-75-42a33 33 0 0 0-49 19 332 332 0 0 0 0 176z m152 196a331 331 0 0 0 82 34 32 32 0 0 0 28-6 31 31 0 0 0 13-26v-87a72 72 0 0 0-37-64 71 71 0 0 0-74 0l-75 44a32 32 0 0 0-16 23 32 32 0 0 0 9 27 319 319 0 0 0 70 55z m398-54a32 32 0 0 0 9-27 32 32 0 0 0-16-24l-75-43a71 71 0 0 0-74 0 72 72 0 0 0-37 63v87a31 31 0 0 0 13 26 32 32 0 0 0 28 6 331 331 0 0 0 82-34 319 319 0 0 0 70-54z m143-230a377 377 0 1 0-377 377 377 377 0 0 0 377-377z m-377 492a492 492 0 1 1 492-492 492 492 0 0 1-492 492z m0-418a74 74 0 1 1 74-74 74 74 0 0 1-74 74z m328-74a332 332 0 0 0-12-88 33 33 0 0 0-48-19l-75 43a74 74 0 0 0 0 128l75 43a33 33 0 0 0 48-20 332 332 0 0 0 12-87z m-562-230a32 32 0 0 0-9 28 32 32 0 0 0 16 23l75 43a71 71 0 0 0 74 0 72 72 0 0 0 37-64v-87a31 31 0 0 0-13-26 32 32 0 0 0-28-6 331 331 0 0 0-82 34 319 319 0 0 0-70 55z m398-54a331 331 0 0 0-82-34 32 32 0 0 0-28 6 31 31 0 0 0-13 25v88a72 72 0 0 0 38 64 71 71 0 0 0 73 0l76-43a32 32 0 0 0 16-24 32 32 0 0 0-9-27 319 319 0 0 0-71-55z" horiz-adv-x="1000" />

<glyph glyph-name="chip" unicode="&#xe81c;" d="M933 506v80h-126v70h-70v127h-81v-126h-18v126h-80v-126h-18v126h-80v-126h-18v126h-80v-126h-18v126h-80v-126h-70v-70h-127v-80h127v-18h-127v-80h127v-18h-127v-80h127v-18h-127v-80h127v-19h-127v-80h127v-69h69v-126h80v125h18v-127h80v127h18v-127h80v127h18v-127h81v127h18v-127h80v127h69v69h126v81h-124v18h126v80h-126v18h126v80h-126v18h126v80h-126v18z m-215-374h-436v437h436z" horiz-adv-x="1000" />

<glyph glyph-name="clock" unicode="&#xe81d;" d="M500 850a500 500 0 1 1 500-500 501 501 0 0 1-500 500z m0-911a411 411 0 1 0 411 411 412 412 0 0 0-411-411z m232 680l62-63-289-289-184 184 63 62 121-120z" horiz-adv-x="1000" />

<glyph glyph-name="dollar" unicode="&#xe81e;" d="M500 850a500 500 0 1 1 500-500 501 501 0 0 1-500 500z m0-911a411 411 0 1 0 411 411 412 412 0 0 0-411-411z m185 384a129 129 0 0 0 19-75 136 136 0 0 0-19-74 147 147 0 0 0-50-49 220 220 0 0 0-69-27l-22-4v-59h-88v56a316 316 0 0 0-73 15 202 202 0 0 0-87 59l83 77a237 237 0 0 1 51-44 126 126 0 0 1 67-16 152 152 0 0 1 28 3 93 93 0 0 1 27 10 61 61 0 0 1 20 18 41 41 0 0 1 8 25 42 42 0 0 1-20 38 174 174 0 0 1-50 20c-20 5-41 10-64 14a251 251 0 0 0-65 22 136 136 0 0 0-50 42 122 122 0 0 0-20 74 143 143 0 0 0 18 71 148 148 0 0 0 46 50 193 193 0 0 0 64 29l18 4v62h89v-59a301 301 0 0 0 65-15 162 162 0 0 0 79-58l-83-74a114 114 0 0 1-98 50 104 104 0 0 1-49-12 42 42 0 0 1-23-40 35 35 0 0 1 20-33 210 210 0 0 1 50-17c20-5 41-10 65-15a252 252 0 0 0 64-24 143 143 0 0 0 49-44z" horiz-adv-x="1000" />

<glyph glyph-name="facebook" unicode="&#xe81f;" d="M683 350h-120c0-192 0-428 0-428h-179c0 0 0 234 0 428h-83v151h83v97c0 69 33 178 179 178l131 0v-146c0 0-81 0-94 0-17 0-37-7-37-42v-87h136l-16-151z" horiz-adv-x="1000" />

<glyph glyph-name="gauge" unicode="&#xe820;" d="M500 799a449 449 0 1 1 449-449 449 449 0 0 1-449 449z m0-818a370 370 0 0 0-351 255h702a370 370 0 0 0-351-255z m83 360l64 97-87 57-101-154h-327c0 3 0 6 0 10a369 369 0 0 0 737 0c0-4 0-7 0-10z m-316 178a57 57 0 1 1 57-57 57 57 0 0 1-57 57z m466 0a57 57 0 1 1 57-57 57 57 0 0 1-57 57z m-328 123a57 57 0 1 1 58-58 57 57 0 0 1-58 58z m181 3a57 57 0 1 1 57-58 57 57 0 0 1-57 57z" horiz-adv-x="1000" />

<glyph glyph-name="funnel" unicode="&#xe821;" d="M621-99h-242v362l-348 490h938l-348-490z m-164 78h86v309l274 387h-634l274-387z" horiz-adv-x="1000" />

<glyph glyph-name="down" unicode="&#xe822;" d="M792 555h118l-410-410-410 410h118l292-292z" horiz-adv-x="1000" />

<glyph glyph-name="eye" unicode="&#xe823;" d="M500-13c215 0 409 136 494 348l6 16-6 15c-85 211-278 347-494 347s-407-136-493-347l-7-16 7-16c86-211 278-347 493-347z m0 641c175 0 333-109 408-278-75-169-233-277-408-277s-333 108-407 277c74 169 232 278 407 278z m0-511a233 233 0 1 1-233 233 234 234 0 0 1 233-233z m0 382a149 149 0 1 0-149-149 149 149 0 0 0 149 149z" horiz-adv-x="1000" />

<glyph glyph-name="graph" unicode="&#xe824;" d="M1000-150h-1000v1000h93v-907h907z m-781 343v-162h93v162z m202 142v-305h93v305z m203 220v-525h92v525z m202 259v-784h92v784z" horiz-adv-x="1000" />

<glyph glyph-name="healthcare" unicode="&#xe825;" d="M914 223h-287v-287h-254v287h-287v254h287v287h254v-287h287z" horiz-adv-x="1000" />

<glyph glyph-name="heart" unicode="&#xe826;" d="M501-117c749 403 518 934 208 934a313 313 0 0 1-208-85 312 312 0 0 1-209 85c-309 0-540-531 209-934z m-399 678a224 224 0 0 0 74 119 185 185 0 0 0 117 44h0a221 221 0 0 0 147-62l62-55 62 55a221 221 0 0 0 146 62 185 185 0 0 0 116-44 224 224 0 0 0 74-119c14-57 17-148-53-263a721 721 0 0 0-142-164 1267 1267 0 0 0-204-144 1275 1275 0 0 0-204 144 715 715 0 0 0-141 164c-71 115-68 206-54 263z" horiz-adv-x="1000" />

<glyph glyph-name="home" unicode="&#xe827;" d="M987 364l-486 486-488-486v-514h391v327h192v-327h391z m-87-427h-217v327h-366v-327h-217v391l400 399 400-399z" horiz-adv-x="1000" />

<glyph glyph-name="headphone" unicode="&#xe828;" d="M500 850a497 497 0 0 1-496-496v-378a126 126 0 0 1 125-126h55a126 126 0 0 1 126 126v246a126 126 0 0 1-126 126h-93v6a410 410 0 0 0 820 0v-6h-93a126 126 0 0 1-126-126v-246a126 126 0 0 1 126-126h55a126 126 0 0 1 125 126v378a497 497 0 0 1-498 496z m-278-628v-246a39 39 0 0 0-39-39h-54a39 39 0 0 0-39 39v285h93a39 39 0 0 0 40-39z m688-246a39 39 0 0 0-39-39h-55a39 39 0 0 0-39 39v246a39 39 0 0 0 39 39h93z" horiz-adv-x="1000" />

<glyph glyph-name="email" unicode="&#xe829;" d="M956 524l-352 272a167 167 0 0 1-206 0l-352-272a113 113 0 0 1-44-91v-441a114 114 0 0 1 114-114h770a114 114 0 0 1 114 113v442a116 116 0 0 1-44 91z m-506 205a83 83 0 0 0 102 0l328-253h-757z m348-338l-281-234-3-2a19 19 0 0 0-26 0l-284 236z m88-428h-770a29 29 0 0 0-29 29v387l343-285a104 104 0 0 1 142 0l343 285v-387a29 29 0 0 0-29-29z" horiz-adv-x="1000" />

<glyph glyph-name="energy" unicode="&#xe82a;" d="M450 242h-268l427 562-40-324h249l-389-583z" horiz-adv-x="1000" />

<glyph glyph-name="disc" unicode="&#xe82b;" d="M500-150a500 500 0 1 1-500 500 501 501 0 0 1 500-500z m0 911a411 411 0 1 0-411-411 412 412 0 0 0 411 411z m0-576a165 165 0 1 1-165 165 165 165 0 0 1 165-165z m0 241a76 76 0 1 0-76-76 76 76 0 0 0 76 76z" horiz-adv-x="1000" />

<glyph glyph-name="language" unicode="&#xe82c;" d="M565 276h319l0-120h-319v-86c0-63-15-95-63-112s-106-20-177-20a466 466 0 0 1-52 122c46-2 116-2 133-2s23 3 23 15v83h-313v120h313v62l29 0a469 469 0 0 1 66 47h-241v113h368l22 6 68-40v85h-488v-119h-124v239h301v93l163-9c0-11-8-17-28-19v-65h307v-238h-127a1065 1065 0 0 0-180-139z m320 0h0v0h0z" horiz-adv-x="1000" />

<glyph glyph-name="mic" unicode="&#xe82d;" d="M500 130a201 201 0 0 1 201 200v320a201 201 0 1 1-401 0v-320a201 201 0 0 1 200-200z m-112 520a112 112 0 1 0 224 0v-320a112 112 0 0 0-224 0z m-163-284a44 44 0 0 1-44-44 320 320 0 0 1 275-316v-68h-133v-88h355v88h-134v68a320 320 0 0 1 275 316 44 44 0 0 1-88 0 232 232 0 0 0-462 0 44 44 0 0 1-44 44z" horiz-adv-x="1000" />

<glyph glyph-name="gear" unicode="&#xe82e;" d="M405 114a255 255 0 1 1-141 331 255 255 0 0 1 141-331z m-63 300a169 169 0 0 0 158 106 168 168 0 0 0 64-12 170 170 0 0 0-64-329 167 167 0 0 0-64 12 170 170 0 0 0-94 223z m-249-87l-92-56 96-225 103 26a370 370 0 0 1 27-27l-24-103 228-93 54 93c12 0 25 0 38 0l56-91 225 96-26 103a370 370 0 0 1 27 27l103-24 93 228-93 54c0 12 0 25 0 38l90 55-95 226-103-26a370 370 0 0 1-27 27l25 102-229 93-53-93c-13 0-26 0-39 0l-55 92-226-96 26-103a370 370 0 0 1-27-27l-102 25-93-229 93-53c-2-13-2-25 0-39z m50 222l85-20 16 22a328 328 0 0 0 52 52l21 17-21 84 92 40 47-75 26 4a305 305 0 0 0 74 0l28-3 44 75 92-38-20-84 22-17a327 327 0 0 0 52-52l17-21 84 22 40-93-75-46 4-27a305 305 0 0 0 0-74l-3-27 75-44-38-93-84 21-17-22a328 328 0 0 0-52-52l-21-18 22-84-93-39-46 74-27-3a305 305 0 0 0-74 0l-25 2-44-74-95 37 20 85-20 16a328 328 0 0 0-53 52l-16 21-85-21-39 92 74 47-4 25a305 305 0 0 0 0 74l2 26-74 44z" horiz-adv-x="1000" />

<glyph glyph-name="gavel" unicode="&#xe82f;" d="M979 202l-211 211 61 61a131 131 0 0 1 0 186l-152 151a131 131 0 0 1-185 0l-284-283a131 131 0 0 1 0-185l152-151a131 131 0 0 1 185 0l65 65 211-212a79 79 0 0 1 112 0l45 45a79 79 0 0 1 1 112z m-526 36a46 46 0 0 0-33 14l-151 151a46 46 0 0 0 0 66l4 3 55-56a42 42 0 0 1 30-12 42 42 0 0 1 30 72l-56 56 157 156 55-56a42 42 0 0 1 30-12 42 42 0 0 1 30 72l-56 56 4 3a46 46 0 0 0 66 0l151-151a46 46 0 0 0 0-65l-4-4-16 16a42 42 0 1 1-59-60l16-16-157-156-17 16a42 42 0 0 1-59-60l16-16-3-3a46 46 0 0 0-33-14z m425-129l-208 209 37 37 209-208z m-294 29h-480a106 106 0 0 1-106-106v-76a106 106 0 0 1 106-106h480a106 106 0 0 1 105 106v76a106 106 0 0 1-105 106z m21-182a21 21 0 0 0-21-21h-480a21 21 0 0 0-21 21v76a21 21 0 0 0 21 21h480a21 21 0 0 0 21-21z" horiz-adv-x="1000" />

<glyph glyph-name="mag" unicode="&#xe830;" d="M791 219a423 423 0 1 1-160-160l173-173a119 119 0 0 1 84-36h0a97 97 0 0 1 69 27l16 17a108 108 0 0 1-8 152z m-603-27a332 332 0 1 0 470 0h0a332 332 0 0 0-470 0z m720-234l-16-16a8 8 0 0 0-4 0 29 29 0 0 0-20 9l-162 162 16 16h0l16 16 162-162c10-11 11-23 8-25z" horiz-adv-x="1000" />

<glyph glyph-name="mobile" unicode="&#xe831;" d="M894 781h-787a64 64 0 0 1-64-63v-562a64 64 0 0 1 64-64h787a64 64 0 0 1 63 64v562a64 64 0 0 1-63 63z m-14-612h-759v84h759z m0 162h-759v373h759z m-644-265a97 97 0 1 1 97-97 97 97 0 0 1-97 97z m0-123a26 26 0 1 0 26 26 26 26 0 0 0-26-26z m537 123a97 97 0 1 1 97-97 97 97 0 0 1-97 97z m0-123a26 26 0 1 0 25 26 26 26 0 0 0-25-26z" horiz-adv-x="1000" />

<glyph glyph-name="map" unicode="&#xe832;" d="M645-141l330 78v913l-330-77-290 68-330-78v-913l330 77z m-40 93l-209 49v746l209-49z m288 49l-206-49v746l206 49z m-786 697l207 49v-745l-207-49z" horiz-adv-x="1000" />

<glyph glyph-name="humility" unicode="&#xe833;" d="M310 257c10-10 27-19 75-19h39a86 86 0 0 0-49 21c-17 16-118 107-136 124a42 42 0 0 1-59 4 52 52 0 0 1-4-5c3-4 20-19 31-29z m-94 0c10-10 26-19 75-19h20a41 41 0 0 0-19 10c-37 32-159 146-166 152a42 42 0 0 1-58 3 40 40 0 0 1-11-16 69 69 0 0 0 37-18z m770-244c-23 47-70 137-107 203-63 111-141 136-216 136l-215-13a44 44 0 0 1-45-45 43 43 0 0 1 45-46h145c33 0 32-29 0-29h-301c-47 0-70 7-88 23l-122 113a41 41 0 1 1-62-55s82-88 133-148c33-39 51-59 155-59h266c55 0 78-22 111-83a50 50 0 0 1 53-29h234c18 0 23 12 14 32z m-589 527h101v-121h93v300h-93v-105h-101v105h-92v-301h92z" horiz-adv-x="1000" />

<glyph glyph-name="logothumb" unicode="&#xe834;" d="M571 846a394 394 0 0 0 168-69 444 444 0 0 0 90-87c7-9 61-94 51-103a7 7 0 0 0-4-2h-5a131 131 0 0 0-30 43 229 229 0 0 1-37 50 654 654 0 0 1-59 57c-78 64-225 100-323 69a473 473 0 0 1-121-65c-18-15-36-47-62-51l-7 4 0 2c0 17 41 53 52 63a315 315 0 0 0 202 93l61 0z m0-81c181-32 292-199 304-335a296 296 0 0 0-9-89 280 280 0 0 1-8-70 147 147 0 0 0-4-64c-4-2-7-4-11-2-27 13-15 67-15 97l8 85a333 333 0 0 1-33 156 361 361 0 0 1-83 103 358 358 0 0 1-79 55c-190 95-322-44-409-132-25-25-49-60-80-78a13 13 0 0 0-8 5l0 2c6 34 41 70 60 92 65 76 156 152 262 172a409 409 0 0 0 69 7z m-32-77a314 314 0 0 0 251-269c4-44-14-98-14-144 0-58-1-86 38-121 4-4 23-23 10-29-18-7-58 36-63 43-38 48-27 76-26 147 0 41 23 95 8 126l-4 0-2 0a424 424 0 0 1-26-72c-27-69-47-160-17-213a177 177 0 0 1 54-55c15-10 40-18 39-38l-5-5a111 111 0 0 0-77 30c-44 36-72 70-80 128a114 114 0 0 0 2 53l17 50a309 309 0 0 1 37 118c1 86-20 157-108 190a232 232 0 0 1-113 9c-78-14-116-77-148-151a596 596 0 0 0-49-110 189 189 0 0 0-98-78c-10-3-30-13-42-6-3 3-3 3-4 6 0 14 18 20 28 25a195 195 0 0 1 75 56c67 98 71 239 178 288a268 268 0 0 0 94 25z m-33-90a162 162 0 0 0 73-30 136 136 0 0 0 57-87 157 157 0 0 0-8-65l-18-72c-24-63-47-141-24-196a246 246 0 0 1 96-102c23-14 64-29 69-54a11 11 0 0 0-8-5c-14-4-53 20-64 26a625 625 0 0 0-117 83c-11 11-26 39-52 39-37 0-67-33-96-46l-57-29a777 777 0 0 0-91-28c-16-4-78-25-90-6 16 21 109 40 139 52 116 47 192 125 245 255 32 77 39 164-21 200a89 89 0 0 1-108-12c-48-47-63-124-100-187a243 243 0 0 0-111-100c-14-6-77-37-93-28-13 10 14 23 20 28 31 23 71 36 101 61 81 71 98 225 184 289a97 97 0 0 0 74 15z m-18-104c60-10 56-51 46-104a321 321 0 0 0-22-75 404 404 0 0 0-241-214c-23-9-93-37-124-13l1 7c10 12 97 36 118 45a399 399 0 0 1 186 156c17 27 60 103 29 130-29 0-46-82-59-106a347 347 0 0 0-175-154 278 278 0 0 0-74-23c-10 0-29-1-33 8-3 18 63 32 77 38a311 311 0 0 1 162 140c26 44 43 142 85 160a101 101 0 0 0 24 6z m-260 14l4-1a8 8 0 0 0 5-7c6-33-53-88-72-102-6-6-32-25-37-9-2 14 13 26 20 34 22 25 50 72 80 85z m279-422a144 144 0 0 0 60-39c34-27 62-53 93-80a229 229 0 0 0 37-33l-3-7c-19-4-39 15-52 23-23 15-110 71-141 72-42 2-72-15-105-26a855 855 0 0 0-102-28c-20-4-70-13-90 6 1 5 3 5 6 7a599 599 0 0 1 197 59c35 15 61 38 100 46z m5-119a255 255 0 0 0 103-57c14-12 29-28 0-29-33 0-61 31-94 34a748 748 0 0 1-148 5c-12-2-51-11-63-4l-4 3 2 5c11 14 38 14 55 19a538 538 0 0 0 79 16 229 229 0 0 0 70 9z m-19-78c30-5 73-15 79-34-6-8-18-7-31-3a182 182 0 0 1-53 13c-20 0-49-8-64 5l2 7c15 20 40 9 67 13z" horiz-adv-x="1000" />

<glyph glyph-name="news" unicode="&#xe835;" d="M842 589h-213v-96h213z m0-167h-213v-96h213z m-272 167h-232v-263h232z m272-326h-504v-95h504z m-653 494v-247h-185v-443a125 125 0 0 1 124-125l60 0h669a140 140 0 0 1 140 139v676z m0-675a60 60 0 0 0-60-60 45 45 0 0 0-45 45v362h105z m727 0a60 60 0 0 0-59-59h-588v655h648z" horiz-adv-x="1000" />

<glyph glyph-name="popup" unicode="&#xe836;" d="M769 767h-689v-688h689z m-75-613h-539v538h539z m151 468v-614h-613v-75h688v689z" horiz-adv-x="1000" />

<glyph glyph-name="globe" unicode="&#xe837;" d="M500 850a500 500 0 1 1 500-500 501 501 0 0 1-500 500z m-44-102v-354h-144a648 648 0 0 0 62 258 232 232 0 0 0 82 96z m0-442v-354a232 232 0 0 0-82 96 648 648 0 0 0-62 258z m88-354v354h144a648 648 0 0 0-63-258 232 232 0 0 0-81-96z m0 442v354a232 232 0 0 0 81-96 648 648 0 0 0 63-258z m233 0a739 739 0 0 1-72 298c-4 7-7 14-11 21a412 412 0 0 0 215-319z m-471 319c-4-7-7-14-11-21a739 739 0 0 1-72-298h-132a412 412 0 0 0 215 319z m-83-407a739 739 0 0 1 72-298c4-7 7-14 11-21a412 412 0 0 0-215 319z m471-319c4 7 8 14 11 21a739 739 0 0 1 73 298h131a412 412 0 0 0-215-319z" horiz-adv-x="1000" />

<glyph glyph-name="padlock" unicode="&#xe838;" d="M815 424h-63v164c0 127-110 238-252 238s-252-111-252-238v-164h-63a68 68 0 0 1-63-63v-423a68 68 0 0 1 63-64h630a68 68 0 0 1 63 64v423a68 68 0 0 1-63 63z m-445 169c0 65 65 114 129 114s129-49 129-114v-167h-258z m425-606a38 38 0 0 0-38-38h-513a39 39 0 0 0-39 35s0 2 0 3v324a39 39 0 0 0 39 39h513a39 39 0 0 0 38-36s0-1 0-3z" horiz-adv-x="1000" />

<glyph glyph-name="kldscreen" unicode="&#xe839;" d="M579 283a105 105 0 0 0 17-15l0-3c-9-2-18 6-23 10a257 257 0 0 1-64 33 133 133 0 0 1-49-12 375 375 0 0 0-46-13c-9-2-31-6-41 3 0 2 2 2 3 3a274 274 0 0 1 87 26 265 265 0 0 0 46 23 68 68 0 0 0 28-18c14-13 28-26 42-37z m10 35a113 113 0 0 0-43 46c-11 25 0 61 10 89 3 11 5 23 8 33a72 72 0 0 1 4 30 62 62 0 0 1-26 40 75 75 0 0 1-33 15 44 44 0 0 1-33-7c-39-29-46-99-84-132-13-11-31-17-46-28-2-2-15-8-9-13s36 10 42 13a110 110 0 0 1 51 47c17 28 24 63 47 85a41 41 0 0 0 49 5c28-16 25-56 10-92a193 193 0 0 0-112-116c-14-5-56-14-64-23 6-9 34 0 41 3a370 370 0 0 1 39 12l26 13c13 6 27 21 44 21 12 0 18-13 23-18a282 282 0 0 1 53-37c5-3 24-14 30-13a5 5 0 0 1 3 3c-1 11-19 18-30 24z m-31-62a119 119 0 0 1-46 26 99 99 0 0 1-32-3 217 217 0 0 1-36-8c-8-2-20-2-25-8l0-3 2-1c5-3 23 1 29 2a345 345 0 0 0 67-2c15-2 28-16 43-16s4 8-2 14z m-46 185a139 139 0 0 1 10 34c4 25 6 43-21 48a77 77 0 0 1-11-2c-19-9-27-53-39-73a143 143 0 0 0-74-64c-6-3-36-9-35-18 2-4 11-3 15-3a122 122 0 0 1 34 10 160 160 0 0 1 80 70c6 11 14 48 27 48 14-12-6-47-13-59a183 183 0 0 0-85-72 370 370 0 0 1-55-19l0-3c14-12 46 2 57 5a185 185 0 0 1 109 99z m-9-194c-12-2-23 3-30-6l0-3c6-6 20-2 29-2a77 77 0 0 0 23-6c7-2 12-2 15 0-4 10-24 15-38 17z m-156 275a210 210 0 0 1 36 35c40 41 101 104 188 60a159 159 0 0 0 35-25 166 166 0 0 0 38-46 152 152 0 0 0 16-72l-4-38c0-14-6-38 7-44 2 0 3 0 4 0a66 66 0 0 1 2 29 129 129 0 0 0 4 32 131 131 0 0 1 3 40 176 176 0 0 1-138 153l-17 2a194 194 0 0 1-31-3 222 222 0 0 1-120-78 108 108 0 0 1-27-42v0a6 6 0 0 1 4-3z m-13-91c6-4 15 1 19 2a86 86 0 0 1 45 36 264 264 0 0 1 23 50c14 34 32 62 67 69a106 106 0 0 0 52-4c40-15 50-46 49-87a141 141 0 0 0-17-53l-8-24a50 50 0 0 1 0-23 85 85 0 0 1 37-58 49 49 0 0 1 35-14l2 3c0 8-11 12-18 16a81 81 0 0 0-24 26c-14 23-5 66 8 97a220 220 0 0 0 11 33h0l2 0c7-14-3-39-3-57 0-33-6-45 12-68 2-3 20-23 28-19s-2 11-4 13c-18 16-17 29-17 55 0 21 8 46 6 66a143 143 0 0 1-115 123l-20 1a122 122 0 0 1-44-11c-48-23-50-87-81-131a90 90 0 0 0-34-26c-4-2-13-5-13-12 0-2 0-2 1-3z m666 328v-615a69 69 0 0 0-69-70h-246v-118h115v-85h-601v85h116v118h-246a69 69 0 0 0-69 70v615a69 69 0 0 0 69 70h861a69 69 0 0 0 70-70z m-400-685h-199v-118h199z m315 670h-830v-585h830z m-562-264c8 6 35 32 32 46a4 4 0 0 1-2 3l-2 0c-13-6-26-28-36-39-3-4-10-9-10-16s15 2 18 6z m62 155a211 211 0 0 0 55 30 180 180 0 0 0 147-31 285 285 0 0 0 27-26 107 107 0 0 0 17-23 61 61 0 0 1 14-20h2c1 0 1 0 2 1 4 5-20 43-23 47a196 196 0 0 1-41 39 181 181 0 0 1-77 32l-10 1h-28a145 145 0 0 1-93-42c-5-5-23-22-23-29v0l3-2c11 1 20 16 28 23z" horiz-adv-x="1000" />

<glyph glyph-name="pharma" unicode="&#xe83a;" d="M755 591h-509a242 242 0 0 1-242-241 241 241 0 0 1 241-241h509a242 242 0 0 1 241 241 241 241 0 0 1-240 241z m159-241a160 160 0 0 0-159-159h-214v318h214a160 160 0 0 0 159-159z" horiz-adv-x="1000" />

<glyph glyph-name="link" unicode="&#xe83b;" d="M920 765a273 273 0 0 1-228 74 407 407 0 0 1-239-120 415 415 0 0 1-113-200 413 413 0 0 1-218-116 409 409 0 0 1-120-239 273 273 0 0 1 74-231 265 265 0 0 1 191-74 367 367 0 0 1 38 2 407 407 0 0 1 238 120 415 415 0 0 1 114 201 413 413 0 0 1 217 115 409 409 0 0 1 120 238 273 273 0 0 1-74 230z m-439-722a319 319 0 0 0-186-95 187 187 0 0 0-157 49 187 187 0 0 0-48 157 319 319 0 0 0 94 186 332 332 0 0 0 146 87 264 264 0 0 1 76-176 261 261 0 0 1 158-74 336 336 0 0 0-83-134z m-62 392a173 173 0 0 0 108-49 177 177 0 0 0 49-121 173 173 0 0 0-108 48 177 177 0 0 0-49 122z m487 111a319 319 0 0 0-95-186 332 332 0 0 0-146-86 263 263 0 0 1-75 176h0a260 260 0 0 1-158 73 336 336 0 0 0 83 134 319 319 0 0 0 186 94c10 0 19 2 28 2a179 179 0 0 0 129-50 187 187 0 0 0 48-157z" horiz-adv-x="996" />

<glyph glyph-name="pressrelease" unicode="&#xe83c;" d="M750 820h-654v-940h808v785z m-32-86l95-95h-95z m103-770h-642v772h455v-180h187z m-528 625a32 32 0 1 1 0-64 384 384 0 0 0 383-383 32 32 0 1 1 64 0 448 448 0 0 1-448 448z m0-163a32 32 0 1 1 0-64 221 221 0 0 0 220-220 32 32 0 1 1 64 0 284 284 0 0 1-285 284z m36-178a69 69 0 1 1 69-69 69 69 0 0 1-69 69z" horiz-adv-x="1000" />

<glyph glyph-name="login" unicode="&#xe83d;" d="M71-147h851a71 71 0 0 1 71 71v851a71 71 0 0 1-70 72h-851a71 71 0 0 1-72-71v-851a71 71 0 0 1 71-72z m17 88v575h818v-575z m818 817v-153h-818v153z m-759-77a35 35 0 1 0 34-35 35 35 0 0 0-35 36z m107 0a35 35 0 1 0 35-35 35 35 0 0 0-36 36z m107 0a35 35 0 1 0 35-35 35 35 0 0 0-35 36z" horiz-adv-x="994" />

<glyph glyph-name="linkedin" unicode="&#xe83e;" d="M725 470c-91 0-130-48-153-83v-2h0c0 0 0 0 0 2v72h-169c2-49 0-512 0-512h169v287c0 17 0 30 4 42 12 30 40 62 88 62 63 0 86-46 86-115v-276h169v294c0 158-83 229-194 229z m-503 237c-58 0-97-40-97-88 0-49 37-88 95-88h0c60 0 97 39 97 88 0 48-37 88-95 88z m-85-760h169v512h-169v-512z" horiz-adv-x="1000" />

<glyph glyph-name="download" unicode="&#xe83f;" d="M0-150h1047v435h-339l-6-39a181 181 0 0 0-357 0l-7 39h-338z m93 342h169a276 276 0 0 1 83-124 274 274 0 0 1 439 124h170v-249h-861z m477 658v-415l128 130 66-66-240-242-242 242 65 66 130-130v415z" horiz-adv-x="1046" />

<glyph glyph-name="privlog" unicode="&#xe840;" d="M0-150h1000v1000h-1000z m89 911h822v-822h-822z m328-144h379v-89h-379z m-214 0h107v-89h-106z m214-223h379v-88h-379z m-214 0h107v-88h-106z m214-222h379v-89h-379z m-214 0h107v-89h-106z" horiz-adv-x="1000" />

<glyph glyph-name="phone" unicode="&#xe841;" d="M959 194l-155 115a100 100 0 0 1-123-4l-79-68a12 12 0 0 0-8-2 11 11 0 0 0-7 2 816 816 0 0 0-111 97 833 833 0 0 0-82 99 12 12 0 0 0 0 15l71 84a100 100 0 0 1 4 123l-116 155a100 100 0 0 1-79 40 98 98 0 0 1-34-6l-175-65a100 100 0 0 1-62-114 1088 1088 0 0 1 279-517c165-172 389-296 534-296h4l9 0c5 0 11-1 18-1h0a77 77 0 0 1 33 6 99 99 0 0 1 52 56l62 166a101 101 0 0 1-35 115z m-48-85l-61-166a12 12 0 0 0-5-6l-7 0a139 139 0 0 1-18 1h-2c-118-1-327 116-473 269a1003 1003 0 0 0-257 477 11 11 0 0 0 7 13l175 65a12 12 0 0 0 14-5l116-155a12 12 0 0 0 0-15l-73-84a99 99 0 0 1-5-121 926 926 0 0 1 90-109 929 929 0 0 1 123-107 99 99 0 0 1 122 4l80 68a12 12 0 0 0 7 2 13 13 0 0 0 8-2l155-115a12 12 0 0 0 4-14z" horiz-adv-x="1000" />

<glyph glyph-name="scanning" unicode="&#xe842;" d="M96-120h808v785l-154 155h-654z m717 759h-95v95z m-634 97h455v-180h187v-240h-642z" horiz-adv-x="1000" />

<glyph glyph-name="shield" unicode="&#xe843;" d="M499-145c-215 77-322 250-367 347-66 141-65 354-64 469v12l431 162 433-162v-13c0-115 2-328-64-469-45-96-152-269-367-347h-2z m-345 751c4-121 10-270 56-368 37-80 124-225 289-294 166 69 255 213 291 294 47 98 51 247 56 368v6l0 0-4 3 3 7-344 130-347-132z" horiz-adv-x="1000" />

<glyph glyph-name="rss" unicode="&#xe844;" d="M245 187a93 93 0 1 1 92-93 93 93 0 0 1-92 93z m-93 275v-134a322 322 0 0 0 230-96 326 326 0 0 0 96-231h134a461 461 0 0 1-460 461z m0 238v-134a564 564 0 0 0 562-565h134a698 698 0 0 1-696 699z" horiz-adv-x="1000" />

<glyph glyph-name="star" unicode="&#xe845;" d="M500 826l-154-313-346-51 250-243-59-345 309 163 309-163-59 345 250 243-346 51z m171-582l40-234-211 111-210-111 40 234-170 166 235 34 105 214 105-214 235-34z" horiz-adv-x="1000" />

<glyph glyph-name="security" unicode="&#xe846;" d="M385 547h70v-132l124 132h91l-141-147 153-170h-98l-129 150v-150h-69z m114-697c-217 78-324 253-370 350-67 143-66 358-65 474v12l435 164 437-164v-13c0-116 2-331-65-473-46-97-153-272-370-350h-2z m-347 758c4-121 10-272 56-371 38-81 126-227 292-297 168 70 256 216 294 297 46 99 51 250 56 370v7l0 0-4 3 3 7-347 132-351-134z" horiz-adv-x="1000" />

<glyph glyph-name="speak" unicode="&#xe847;" d="M68-138a65 65 0 0 1 25 5l178 70a483 483 0 0 1 245-67h0a483 483 0 0 1 352 816 475 475 0 0 1-162 114 484 484 0 0 1-668-378 486 486 0 0 1 48-290l-80-173a68 68 0 0 1 13-75 69 69 0 0 1 49-22z m104 294a400 400 0 0 0-49 254 398 398 0 0 0 393 342 397 397 0 0 0 273-687 395 395 0 0 0-272-108h0a396 396 0 0 0-217 64l-19 12-178-69 80 173z" horiz-adv-x="1000" />

<glyph glyph-name="server" unicode="&#xe848;" d="M780 658v192h-560v-192h-198v-687h198v-121h560v121h198v687h-198z m-688-617v547h129v-228h-55v-92h55v-60h-55v-92h55v-75h-129z m612-115h-408v848h408v-848z m205 115h-129v75h54v92h-54v60h54v92h-54v228h129v-547z m-291-42h-236v46 46 141h236v-141-46-46z m0 282h-236v92h236v-92z m0 141h-236v92h236v-92z m-147 166h-89v88h89v-88z m147 0h-89v88h89v-88z" horiz-adv-x="1000" />

<glyph glyph-name="share" unicode="&#xe849;" d="M199 534a184 184 0 1 1 133-309l290-153a184 184 0 1 1 35 76l-283 149a181 181 0 0 1 0 107l283 149a183 183 0 1 1-35 76l-290-153a183 183 0 0 1-133 58z m602-402a100 100 0 1 0-99-99 100 100 0 0 0 99 99z m0 633a100 100 0 1 0-99-99 100 100 0 0 0 99 100z m-601-516a100 100 0 1 0 99 100 100 100 0 0 0-100-99z" horiz-adv-x="1000" />

<glyph glyph-name="multimatter" unicode="&#xe84a;" d="M141 568a141 141 0 1 1-141 141 141 141 0 0 1 141-141z m0 193a53 53 0 1 0-52-52 53 53 0 0 0 52 52z m718 89a141 141 0 1 1 141-141 141 141 0 0 1-141 141z m0-194a53 53 0 1 0 52 53 53 53 0 0 0-52-53z m-359-88a141 141 0 1 1-141 141 141 141 0 0 1 141-141z m0 193a53 53 0 1 0-52-52 53 53 0 0 0 52 52z m-359-552a141 141 0 1 1-141 141 141 141 0 0 1 141-141z m0 194a53 53 0 1 0-52-53 53 53 0 0 0 52 53z m718 88a141 141 0 1 1 141-141 141 141 0 0 1-141 141z m0-193a53 53 0 1 0 52 52 53 53 0 0 0-52-52z m-359-89a141 141 0 1 1-141 141 141 141 0 0 1 141-141z m0 194a53 53 0 1 0-52-53 53 53 0 0 0 52 53z m-359-553a141 141 0 1 1-141 141 141 141 0 0 1 141-141z m0 194a53 53 0 1 0-52-53 53 53 0 0 0 52 53z m718 88a141 141 0 1 1 141-141 141 141 0 0 1-141 141z m0-193a53 53 0 1 0 52 52 53 53 0 0 0-52-52z m-359-89a141 141 0 1 1-141 141 141 141 0 0 1 141-141z m0 194a53 53 0 1 0-52-53 53 53 0 0 0 52 53z" horiz-adv-x="1000" />

<glyph glyph-name="triangle" unicode="&#xe84b;" d="M0 34l500 771 500-771z" horiz-adv-x="1000" />

<glyph glyph-name="twitterati" unicode="&#xe84c;" d="M887 431l113 51-104 69-23 17 2 23 9 113-106-41-7-3c-58 51-132 79-211 79-51 0-102-12-148-35-65-35-118-90-148-157-21-49-30-102-28-155l-176-91-60-32 32-62c40-77 98-139 169-181 70-42 151-65 232-65 72 0 141 16 206 51 148 76 243 227 245 396 0 5 0 11 0 16 3 2 3 5 3 7z m-70-9c0-5 0-9 0-14-2-137-76-266-208-333-56-28-116-42-174-42-139 0-273 76-340 208l220 114c-28 111 23 233 129 289 38 19 77 28 116 28 74 0 146-33 195-90l48 18-4-65 58-39-47-21c5-18 5-35 7-53z m-180 166c-24 0-42-18-42-41 0-23 18-42 42-42 23 0 41 19 41 42 0 23-18 41-41 41z" horiz-adv-x="1000" />

<glyph glyph-name="support" unicode="&#xe84d;" d="M500 704l-63 63h-437v-734h400l100-100 100 100h400v734h-437z m411-26v-555h-347l-64-64-63 63h-348v556h311l56-56v-351h88v352l56 55z m-54-132h-255v-89h255z m0-188h-255v-89h255z m-712 99h255v89h-255z m0-188h255v89h-255z" horiz-adv-x="1000" />

<glyph glyph-name="usb" unicode="&#xe84e;" d="M882 52v503h-78v295h-608v-295h-78v-503a202 202 0 0 1 202-202h360a202 202 0 0 1 202 202z m-598 710h432v-207h-432z m509-710a114 114 0 0 0-114-114h-359a114 114 0 0 0-114 114v416h588z" horiz-adv-x="1000" />

<glyph glyph-name="team" unicode="&#xe84f;" d="M500 265a159 159 0 1 1-159 158 159 159 0 0 1 159-158z m0 231a74 74 0 1 0-74-74 74 74 0 0 0 74 75z m148-294a507 507 0 0 1-149 31 507 507 0 0 1-148-31 65 65 0 0 1-50-64v-133a63 63 0 0 1 60-66h278a63 63 0 0 1 61 66v133a65 65 0 0 1-52 64z m-33-178h-230v101a401 401 0 0 0 116 24 404 404 0 0 0 116-24z m-447 442a128 128 0 1 1-129 128 129 129 0 0 1 129-128z m0 172a44 44 0 1 0-44-44 44 44 0 0 0 44 44z m158-379v98a58 58 0 0 1-46 59 373 373 0 0 1-113 23 375 375 0 0 1-113-23 59 59 0 0 1-47-59v-98a58 58 0 0 1 58-59h205a58 58 0 0 1 56 59z m-84 25h-148v57a268 268 0 0 0 74 15 268 268 0 0 0 74-15z m591 182a128 128 0 1 1-128 128 129 129 0 0 1 128-128z m0 172a44 44 0 1 0-43-44 44 44 0 0 0 43 44z m114-222a375 375 0 0 1-114 23 373 373 0 0 1-113-23 58 58 0 0 1-46-59v-98a58 58 0 0 1 56-59h205a58 58 0 0 1 56 59v98a59 59 0 0 1-46 59z m-40-132h-149v57a266 266 0 0 0 75 14 268 268 0 0 0 74-15z" horiz-adv-x="1000" />

<glyph glyph-name="umbrella" unicode="&#xe850;" d="M836 665a527 527 0 0 1-282 110v12a54 54 0 1 1-108 0v-12a527 527 0 0 1-282-110 364 364 0 0 1-145-285 54 54 0 0 1 5-23 49 49 0 0 1 12-18v0h0a48 48 0 0 1 17-10 52 52 0 0 1 20-4 53 53 0 0 1 49 33h116a50 50 0 0 1 15-21v-2l1 0a54 54 0 0 1 53-7 52 52 0 0 1 15 10l2 3 4 4 5 7a42 42 0 0 1 4 7h110v-366a135 135 0 0 1 269 0v24a54 54 0 0 1-107 0v-24a27 27 0 1 0-54 0v365h111a54 54 0 0 1 69-28 52 52 0 0 1 16 9l2 2 2 3 5 6a60 60 0 0 1 4 8h116a54 54 0 0 1 85-18h0a56 56 0 0 1 14 19 54 54 0 0 1 4 21h0a365 365 0 0 1-147 285z" horiz-adv-x="1000" />

<glyph glyph-name="preserve" unicode="&#xe851;" d="M750 820h-654v-940h808v785z m-32-86l95-95h-95z m103-770h-642v772h455v-180h187z m-198 474a113 113 0 0 1-227 0v-74h-29a31 31 0 0 1-28-29v-190a30 30 0 0 1 28-28h284a30 30 0 0 1 28 28v191a31 31 0 0 1-28 28h-28z m-56-73h-116v75a58 58 0 0 0 116 0z" horiz-adv-x="1000" />

<glyph glyph-name="piechart" unicode="&#xe852;" d="M541 391v423h-41a463 463 0 1 1 463-463v40z m-41-423a382 382 0 0 0-41 761v-420h421a382 382 0 0 0-380-341z m440 556a362 362 0 0 1-271 267l-50 12v-329h334z m-239 33v138a284 284 0 0 0 141-138z" horiz-adv-x="1000" />

<glyph glyph-name="redact" unicode="&#xe853;" d="M795 847h-691v-414h-69v-141h69v-439h855v830z m-34-91l101-100h-101z m110-815h-679v351h364v141h-364v325h481v-191h198z" horiz-adv-x="994" />

<glyph glyph-name="user" unicode="&#xe854;" d="M109-150h782a95 95 0 0 1 96 95v168a135 135 0 0 1-97 130l-63 19a1134 1134 0 0 1-329 48 1112 1112 0 0 1-321-46l-67-20a135 135 0 0 1-97-131v-168a95 95 0 0 1 96-95z m-11 263a52 52 0 0 0 37 49l66 20a1024 1024 0 0 0 297 43 1056 1056 0 0 0 304-44l64-19a51 51 0 0 0 37-49v-168a11 11 0 0 0-11-11h-783a11 11 0 0 0-11 11z m402 237a250 250 0 1 1-250 250 251 251 0 0 1 250-250z m0 416a166 166 0 1 0-166-165 166 166 0 0 0 166 165z" horiz-adv-x="1000" />

<glyph glyph-name="box100" unicode="&#xe855;" d="M833 369a65 65 0 0 0-17-56l-294-310a87 87 0 0 0-128 0l-294 310a65 65 0 0 0-17 56l-1-2a10 10 0 0 1-4-8v-421a10 10 0 0 1 10-10h740a10 10 0 0 1 10 10v422a10 10 0 0 1-3 7z m53 57l-79 69v355h-698v-355l-79-69a88 88 0 0 1-30-66v-422a88 88 0 0 1 88-88h740a88 88 0 0 1 88 88v422a88 88 0 0 1-30 66z m-708 355h560v-351a254 254 0 0 0-11-76c-8-27-21-43-40-63l-56-59-128-135-38-40c-4-5-10-5-14 0l-227 239c-22 24-37 49-43 82-6 32-3 65-3 98v306z m660-843a10 10 0 0 0-10-10h-740a10 10 0 0 0-10 10v422a10 10 0 0 0 4 7l1 2a65 65 0 0 1 17-56l294-310a87 87 0 0 1 128 0l294 310a65 65 0 0 1 17 56l2-2a10 10 0 0 0 3-7z m-608 665v34c27-1 55 9 57 39h38v-191h-49v118z m141-22c0 51 20 98 74 98 56 0 78-47 78-98s-22-98-78-98c-54 0-74 47-74 98z m107 0c0 25-1 60-31 60-30 0-31-35-31-60s1-60 31-60c30 0 31 35 31 60z m67 0c0 51 20 98 74 98 56 0 78-47 78-98s-22-98-78-98c-54 0-74 47-74 98z m107 0c0 25 0 60-31 60-30 0-31-35-31-60s1-60 31-60c31 0 31 35 31 60z" horiz-adv-x="916" />

<glyph glyph-name="webinar" unicode="&#xe856;" d="M1000 144v615a69 69 0 0 1-69 70h-862a69 69 0 0 1-69-70v-615a69 69 0 0 1 69-70h247v-118h-116v-85h602v85h-116v118h244a69 69 0 0 1 70 70z m-85 600v-409h-830v409z m-315-787h-199v118h199z m-515 202v91h830v-91z" horiz-adv-x="1000" />

<glyph glyph-name="waypoint" unicode="&#xe857;" d="M738 428a238 238 0 1 1-238-239 239 239 0 0 1 238 239z m-385 0a147 147 0 1 0 147-147 147 147 0 0 0-147 147z m53-537a127 127 0 0 1 93-41h2a126 126 0 0 1 93 44l64 73c104 119 166 191 206 255a360 360 0 0 1 56 207 421 421 0 0 1-842 0c0-86 30-172 91-264a1759 1759 0 0 1 185-219z m94 866a330 330 0 0 0 330-328c0-126-42-174-240-402l-64-73a35 35 0 0 0-26-13h0a36 36 0 0 0-26 12c-17 19-35 38-53 57-123 131-251 266-251 419a330 330 0 0 0 330 328z" horiz-adv-x="1000" />

<glyph glyph-name="whitepaper" unicode="&#xe858;" d="M162 827l214-72h390v-639h-54v528l-336 112h0l-214 71v-793l550-184v194h125v783z m483-711v-163l-269 91-146 49v630l5-1 410-138z" horiz-adv-x="1000" />

<glyph glyph-name="youtube" unicode="&#xe859;" d="M981 594c-12 44-43 75-87 87-131 13-263 25-394 19-131 0-262-6-387-19-44-12-82-43-94-87-13-81-19-163-19-244 0-81 6-162 19-244 12-43 44-75 87-87 132-13 263-25 388-19 131 0 262 6 387 19 44 12 75 44 88 87 25 82 31 163 31 244 0 81-6 163-19 244z m-581-394v300l256-150-256-150z" horiz-adv-x="1000" />

<glyph glyph-name="zoomout" unicode="&#xe85a;" d="M722 726a423 423 0 1 1-598-597 423 423 0 0 1 507-70l173-174a120 120 0 0 1 84-35h0a97 97 0 0 1 69 27l16 16a97 97 0 0 1 27 79 122 122 0 0 1-35 74l-174 173a423 423 0 0 1-69 507z m-534-534a332 332 0 1 0 235-97 330 330 0 0 0-235 97z m550-48l162-162a31 31 0 0 0 9-17 10 10 0 0 0 0-7l-16-16a8 8 0 0 0-5 0 28 28 0 0 0-19 10l-162 162 16 16h0z m-513 329h396v-91h-396z" horiz-adv-x="1000" />

<glyph glyph-name="zoomin" unicode="&#xe85b;" d="M722 726a423 423 0 0 1-598-597 423 423 0 0 1 507-70l173-174a120 120 0 0 1 84-35h0a96 96 0 0 1 69 27l16 16a108 108 0 0 1-8 152l-174 174a423 423 0 0 1-69 507z m-534-534a332 332 0 1 0 470 0h0a332 332 0 0 0-470 0z m550-48l162-162c10-10 10-21 8-23l-16-16a8 8 0 0 0-5 0 28 28 0 0 0-19 9l-162 163 16 16h0z m-116 238h-153v-153h-91v153h-153v91h153v153h90v-153h153z" horiz-adv-x="1000" />

<glyph glyph-name="box300" unicode="&#xe85c;" d="M833 369a65 65 0 0 0-17-56l-294-310a87 87 0 0 0-128 0l-294 310a65 65 0 0 0-17 56l-1-2a10 10 0 0 1-4-7v-422a10 10 0 0 1 10-10h740a10 10 0 0 1 10 10v422a10 10 0 0 1-3 7z m53 57l-79 69v355h-698v-355l-79-69a88 88 0 0 1-30-66v-422a88 88 0 0 1 88-88h740a88 88 0 0 1 88 88v422a88 88 0 0 1-30 66z m-708 355h560v-351a254 254 0 0 0-11-76c-8-27-21-43-40-63l-56-59-128-135-38-40c-4-5-10-5-14 0l-227 239c-22 24-37 49-43 82-6 32-3 65-3 98v306z m660-843a10 10 0 0 0-10-10h-740a10 10 0 0 0-10 10v422a10 10 0 0 0 4 7l1 2a65 65 0 0 1 17-56l294-310a87 87 0 0 1 128 0l294 310a65 65 0 0 1 17 56l2-2a10 10 0 0 0 3-7z m-566 664c4 0 8 0 12 0 14 0 31 4 31 20 0 12-12 19-27 19-19 0-30-10-30-27h-44c2 43 33 65 73 65 33 0 72-14 72-53 0-17-9-34-27-37v-1c22-6 33-21 33-44 0-43-40-61-78-61-44 0-80 23-78 72h44c-1-23 11-34 34-34 16 0 31 7 31 23 0 21-15 26-34 26-4 0-8 0-12 0z m112-21c0 51 21 98 75 98 56 0 78-47 78-98s-22-98-78-98c-54 0-75 47-75 98z m108 0c0 25-1 60-32 60-29 0-31-35-31-60s2-60 31-60c31 0 32 35 32 60z m65 0c0 51 20 98 75 98 55 0 78-47 78-98s-22-98-78-98c-55 0-75 47-75 98z m108 0c0 25-1 60-32 60-30 0-31-35-31-60s1-60 31-60c31 0 32 35 32 60z" horiz-adv-x="916" />

<glyph glyph-name="whatised" unicode="&#xe85d;" d="M848 668a458 458 0 0 1-740-523l-76-166a64 64 0 0 1 59-91 62 62 0 0 1 23 5l170 66a457 457 0 0 1 231-63h0a458 458 0 0 1 333 772z m-74-588a375 375 0 0 0-258-103h0a374 374 0 0 0-206 62l-17 11-169-66 76 164-11 19a378 378 0 0 0-46 240 376 376 0 0 0 646 205 377 377 0 0 0-15-532z m-250 521a242 242 0 0 1-246-250c0-142 95-251 246-251a249 249 0 0 1 211 98l-69 52c-36-43-76-71-131-71-84 0-162 55-162 139h383v32c0 123-64 251-232 251z m-150-211a147 147 0 0 0 148 139c92 0 136-60 138-139z" horiz-adv-x="1000" />

<glyph glyph-name="xlsredact" unicode="&#xe85e;" d="M190 100h326v-104h-326v104z m400 0h306v-104h-306v104z m-400 201h326v-125h-326v125z m400 0h306v-125h-306v125z m-400 176h289v24h37v-125h-326v101z m400 26h306v-125h-306v125z m-400 201h326v-125h-37v21h-289v104z m400 0h306v-125h-306v125z m-477 77v-181h-85v-123h85v-558h859v862h-859z" horiz-adv-x="1000" />

<glyph glyph-name="recover" unicode="&#xe85f;" d="M863 254a455 455 0 0 1-587 486 482 482 0 0 1-63-25c-13-7-26-14-39-21v1l-34-20 30 107a53 53 0 0 1-37 66 52 52 0 0 1-41-5 52 52 0 0 1-26-32l-63-229a52 52 0 0 1 40-69l228-64a53 53 0 1 1 29 104l-102 28a347 347 0 1 0 46-580c-11 6-22 13-32 20-6 4-12 8-18 13a257 257 0 0 0-34 42 55 55 0 0 1-52 21 57 57 0 0 1-24-10 54 54 0 0 1-10-77 486 486 0 0 1 35-44 301 301 0 0 1 43-34 435 435 0 0 1 55-34 447 447 0 0 1 127-42c8-1 16-2 25-3a456 456 0 0 1 504 401z" horiz-adv-x="866" />

<glyph glyph-name="manage" unicode="&#xe860;" d="M141 568a141 141 0 1 1-141 141 141 141 0 0 1 141-141z m0 193a53 53 0 1 0-52-52 53 53 0 0 0 52 52z m359-193a141 141 0 1 1-141 141 141 141 0 0 1 141-141z m0 193a53 53 0 1 0-52-52 53 53 0 0 0 52 52z m-359-552a141 141 0 1 1-141 141 141 141 0 0 1 141-141z m0 193a53 53 0 1 0-52-52 52 52 0 0 0 52 52z m718 89a141 141 0 1 1 141-141 142 142 0 0 1-141 141z m0-194a53 53 0 1 0 52 53 53 53 0 0 0-52-53z m-359-88a141 141 0 1 1-141 141 141 141 0 0 1 141-141z m0 193a53 53 0 1 0-52-52 53 53 0 0 0 52 52z m-359-552a141 141 0 1 1-141 141 141 141 0 0 1 141-141z m0 193a52 52 0 1 0-52-52 52 52 0 0 0 52 52z m718 89a141 141 0 1 1 141-141 142 142 0 0 1-141 141z m0-193a52 52 0 1 0 52 52 52 52 0 0 0-52-52z m-359-89a141 141 0 1 1-141 141 141 141 0 0 1 141-141z m0 193a52 52 0 1 0-52-52 53 53 0 0 0 52 52z" horiz-adv-x="1000" />

<glyph glyph-name="restore" unicode="&#xe861;" d="M928 792h-706c-39 0-71-33-71-73v-103h-79c-39 0-71-32-71-72v-563c0-40 32-73 71-73h708c39 0 71 33 71 73v103h77c39 0 71 33 71 73v562c0 40-32 73-71 73z m-838-266h61v-127h-61v127z m672-527h-672v310h61v-152c0-40 32-73 71-73h540v-85z m148 175h-670v310h670v-310z m0 400h-670v127h670v-127z" horiz-adv-x="1000" />

<glyph glyph-name="erase" unicode="&#xe862;" d="M918 695h-451l-51 69c-15 21-40 33-66 33h-268c-45 0-82-37-82-83v-728c0-46 37-83 82-83h836c45 0 82 37 82 83v626c0 46-37 83-82 83z m-7-702h-822v714h258l76-102h488v-612z m-509 482l109-110 110 110 65-65-110-110 110-110-65-64-110 109-109-109-65 64 109 110-109 110 65 65z" horiz-adv-x="1000" />

<glyph glyph-name="eraser" unicode="&#xe863;" d="M970 552l-420 298-457-644 353-251h-446v-105h970v105h-424z m-401 186l289-205-226-317-288 205z m-364-514l83 116 288-203-83-117z" horiz-adv-x="970" />

<glyph glyph-name="flag" unicode="&#xe864;" d="M93 789v57h-93v-991h93v288l907 323z m0-98l634-225-634-225z" horiz-adv-x="1000" />

<glyph glyph-name="up" unicode="&#xe865;" d="M208 145h-118l410 410 410-410h-118l-292 292z" horiz-adv-x="1000" />

<glyph glyph-name="twitter" unicode="&#xe866;" d="M850 494c0-7 0-14 0-21 0-222-169-480-480-480-94 0-182 28-257 77 14-2 26-2 40-2 79 0 150 27 208 71-74 3-136 51-157 116 9-2 21-2 32-2 16 0 30 2 44 7-76 16-134 83-134 164 0 0 0 2 0 2 23-11 48-20 76-20-44 30-74 81-74 138 0 31 9 61 23 84 84-102 206-169 348-176-3 11-5 25-5 39 0 93 74 169 169 169 49 0 93-21 123-53 39 7 74 21 106 42-11-40-39-72-74-93 35 5 67 14 97 26-25-35-53-65-85-88z" horiz-adv-x="1000" />

<glyph glyph-name="speaker" unicode="&#xe867;" d="M195 560h-180v-420h180l215-214h144v848h-144z m283 139v-697h-37l-214 214h-136v268h136l214 214z m350 31a38 38 0 0 1-54-54 463 463 0 0 0 0-652 38 38 0 0 1 54-54 538 538 0 0 1 0 760z m-139-139a38 38 0 0 1-54-54 265 265 0 0 0 0-375 38 38 0 0 1 54-53 342 342 0 0 1 0 483z" horiz-adv-x="1000" />

<glyph glyph-name="back" unicode="&#xe868;" d="M500 706l-356-356 356-356v-144l-500 500 500 500z" horiz-adv-x="500" />

<glyph glyph-name="next" unicode="&#xe869;" d="M0 850l500-500-500-500v144l356 356-356 356z" horiz-adv-x="500" />

<glyph glyph-name="power" unicode="&#xe86a;" d="M844 324c0-190-154-344-344-344s-344 154-344 344c0 161 112 296 261 333v-63c-115-36-200-143-200-270 0-156 127-283 283-283 156 0 283 127 283 283 0 127-84 234-200 270v63c150-37 261-172 261-333z m-375 396v-54-61-258h62v258 61 54h-62z" horiz-adv-x="1000" />

<glyph glyph-name="business" unicode="&#xe86b;" d="M877 243l-64 19a1140 1140 0 0 1-328 48 1117 1117 0 0 1-322-48l-66-20a135 135 0 0 1-97-128v-168a95 95 0 0 1 95-95h784a95 95 0 0 1 95 95v168a135 135 0 0 1-97 129z m12-298a11 11 0 0 0-11-11h-263l-37 174h-183l-41-174h-259a11 11 0 0 0-11 11v169a52 52 0 0 0 37 47l67 20a1022 1022 0 0 0 208 40 55 55 0 0 1-1-11c0-42 41-76 92-76s91 34 91 76a52 52 0 0 1 0 11 1057 1057 0 0 0 212-41l63-19a51 51 0 0 0 36-47z m-152 655a250 250 0 1 1-250-250 250 250 0 0 1 250 250z m-416 0a166 166 0 1 0 166-166 166 166 0 0 0-166 166z" horiz-adv-x="973" />

<glyph glyph-name="cart" unicode="&#xe86c;" d="M513-27c0 67-55 122-123 122-67 0-122-55-122-122 0-68 55-123 122-123 68 0 123 55 123 123z m-155 0c0 17 15 32 32 32 18 0 33-15 33-32 0-18-15-33-33-33-17 0-32 15-32 33z m471-123c67 0 122 55 122 123 0 67-55 122-122 122-68 0-123-55-123-122 0-68 55-123 123-123z m0 155c17 0 32-15 32-32 0-18-15-33-32-33-18 0-33 15-33 33 0 17 15 32 33 32z m133 777h-635 0c-12 0-24-6-31-16-7-11-9-24-4-35l86-372c5-15 20-26 36-26h453c24 0 46 16 54 39l77 359c4 11 2 24-5 35-7 10-19 16-31 16z m-119-358h-392l-55 267h499l-52-267z m-722 336h-76c-25 0-45 20-45 45 0 25 20 45 45 45h140l139-598h582c25 0 45-20 45-45 0-25-20-45-45-45h-647l-138 598z" horiz-adv-x="1000" />

<glyph glyph-name="newsletter" unicode="&#xe86d;" d="M886 426l-79 68v356h-698v-355l-79-69a88 88 0 0 1-30-66v-422a88 88 0 0 1 88-88h740a88 88 0 0 1 88 88v422a88 88 0 0 1-30 66z m-708 356h561v-352a257 257 0 0 0-12-77 149 149 0 0 0-40-62l-56-59-128-136-38-40a9 9 0 0 0-15 0l-226 240a151 151 0 0 0-43 82 564 564 0 0 0-3 98v306z m660-844a10 10 0 0 0-10-10h-740a10 10 0 0 0-10 10v422a9 9 0 0 0 4 7l1 2a64 64 0 0 1 17-55l294-311a87 87 0 0 1 128 0l294 311a65 65 0 0 1 17 55l2-2a10 10 0 0 0 3-7z m-182 682h-392v85h392z m0-137h-392v85h392z" horiz-adv-x="916" />

<glyph glyph-name="dragndrop" unicode="&#xe86e;" d="M978 363c-14 23-33 44-57 62-16 12-33 21-51 29v228c0 25-20 45-45 45h-650c-25 0-45-20-45-45v-664c0-25 20-45 45-45h650c25 0 45 20 45 45v334c25-19 41-45 41-72 0-6-1-12-2-18-7-24 8-48 31-54 4-1 8-2 12-2 19 0 37 13 43 33 3 14 5 28 5 41 0 29-7 57-22 83z m-197-301h-562v576h562v-161c-11 1-23 2-34 2-82 0-155-30-202-77v85c0 24-20 44-44 44-25 0-45-20-45-44v-187c0-24 20-44 45-44h186c25 0 45 20 45 44 0 25-20 45-45 45h-73c7 6 15 12 24 17 30 18 69 28 109 28 11 0 23-1 34-3v-325z" horiz-adv-x="1000" />

<glyph glyph-name="euro" unicode="&#xe86f;" d="M500-150a500 500 0 1 1-500 500 501 501 0 0 1 500-500z m0 911a411 411 0 1 0-411-411 412 412 0 0 0 411 411z m126-184l-20-92a112 112 0 0 1-82 28 111 111 0 0 1-89-39 129 129 0 0 1-26-55h183l-11-51h-178c0-5 0-12 0-20s0-16 0-25h169l-11-52h-151a131 131 0 0 1 25-56 108 108 0 0 1 87-39 135 135 0 0 1 101 39v-101a220 220 0 0 0-101-21 210 210 0 0 0-160 66 227 227 0 0 0-56 112h-49l11 52h32c0 5 0 11 0 17 0 10 0 19 0 27h-43l11 51h39a228 228 0 0 0 56 111 216 216 0 0 0 166 69 219 219 0 0 0 97-21z" horiz-adv-x="1000" />

<glyph glyph-name="pound" unicode="&#xe870;" d="M500-150a500 500 0 1 1-500 500 501 501 0 0 1 500-500z m0 911a411 411 0 1 0-411-411 412 412 0 0 0 411 411z m147-530l35-77a192 192 0 0 0-43-17 182 182 0 0 0-46-6 295 295 0 0 0-78 14 297 297 0 0 1-72 14 144 144 0 0 1-80-28l-36 77a173 173 0 0 1 53 56 113 113 0 0 1 14 76h-67v71h51a233 233 0 0 0-14 77 127 127 0 0 0 19 67 124 124 0 0 0 55 49 177 177 0 0 0 77 16 151 151 0 0 0 100-32 141 141 0 0 0 47-92l-88-13a87 87 0 0 1-22 50 56 56 0 0 1-40 15 58 58 0 0 1-44-17 59 59 0 0 1-15-44 175 175 0 0 1 5-36 268 268 0 0 1 11-40h101v-72h-85a92 92 0 0 0 0-14 117 117 0 0 0-10-47 273 273 0 0 0-39-57 97 97 0 0 0 45 9 164 164 0 0 0 20-1c3 0 12-3 27-7a270 270 0 0 1 53-10 173 173 0 0 1 66 19z" horiz-adv-x="1000" />

<glyph glyph-name="verifile" unicode="&#xe871;" d="M568 93h-142l-124 414h129l68-251h1l67 251h131l-130-414z m350 602h-451l-51 69c-15 21-40 33-66 33h-268c-45 0-82-37-82-83v-728c0-46 37-83 82-83h836c45 0 82 37 82 83v626c0 46-37 83-82 83z m-7-702h-822v714h258l76-102h488v-612z" horiz-adv-x="1000" />

<glyph glyph-name="workflow" unicode="&#xe872;" d="M958-55l-138 239-12 21-63 109-108-187-250 131v115l206 109c39-52 101-85 171-85 118 0 215 97 215 215s-97 216-215 216-216-97-216-216c0-20 3-39 8-58l-169-89v43h-387v-387h387v45l209-110-106-183h178 8 232 92l-42 72z m-194 789c27 0 52-10 73-25 29-22 48-57 48-97 0-7-1-14-2-21-10-57-60-100-120-100-67 0-121 54-121 121s55 122 122 122z m-677-313h213v-83-45-85h-213v213z m566-455l92 160 16-27 76-133h-132-52z" horiz-adv-x="1000" />

<glyph glyph-name="recon" unicode="&#xe873;" d="M719-150h-632a87 87 0 0 0-87 87v826a87 87 0 0 0 87 87h632a87 87 0 0 0 87-87v-826a87 87 0 0 0-87-87z m-52 870h-527v-567h527z m-443-447h105l25 120h46c30 0 43-14 43-32s-5-38-5-55a82 82 0 0 1 4-34h102c-9 21-5 56-5 88s-4 63-35 71v0a93 93 0 0 1 81 96c0 73-50 91-114 91h-175z m160 264h58c27 0 36-17 36-30 0-21-17-39-52-39h-56z" horiz-adv-x="807" />

<glyph glyph-name="blueprint" unicode="&#xe874;" d="M718 710l-246 57-281-65v-145l-91 58-99-154 190-122v-415l281 66 246-57 281 65v778l-281-66z m-282-656l-176-41v281l176-114v-126z m0 344l-176 114v134l176 41v-289z m70-344v117l104 6-55 144-49 32v335l178-42v-48l-111 28v-83l111-28v-503l-178 42z m424 0l-176-41v633l176 42v-634z m-52 572l-73-14v-152l73 13v153z m0-194l-73-14v-152l73 14v152z" horiz-adv-x="1000" />

<glyph glyph-name="frown" unicode="&#xe875;" d="M500-150c276 0 500 224 500 500 0 276-224 500-500 500-276 0-500-224-500-500 0-276 224-500 500-500z m0 911c227 0 411-184 411-411s-184-411-411-411c-227 0-411 184-411 411s184 411 411 411z m314-609h-112l-7 13c-39 73-113 117-195 117s-156-44-195-117l-7-13h-112l15 35c51 121 168 199 299 199s249-78 300-199l14-35z m-367 384c0-40-33-72-73-72s-73 32-73 72 33 73 73 73 73-32 73-73z m252 0c0-40-33-72-73-72s-73 32-73 72 33 73 73 73 73-32 73-73z" horiz-adv-x="1000" />

<glyph glyph-name="camera" unicode="&#xe876;" d="M1000 85v401c0 81-66 147-146 147h-117l-58 128h-371l-48-128h-114c-80 0-146-66-146-147v-401c0-80 66-146 146-146h708c80 0 146 66 146 146z m-911 0v401c0 32 26 58 57 58h176l48 128h252l58-128h174c32 0 57-26 57-58v-401c0-31-25-57-57-57h-708c-31 0-57 26-57 57z m411 487c-146 0-265-119-265-265s119-265 265-265c146 0 265 119 265 265s-119 265-265 265z m0-441c-97 0-176 79-176 176 0 98 79 177 176 177 97 0 176-79 176-177 0-97-79-176-176-176z" horiz-adv-x="1000" />

<glyph glyph-name="warning" unicode="&#xe877;" d="M1000-83h-1000l500 866 500-866z m-862 80h724l-362 627-362-627z m299 449h119v-92l-23-183h-74l-22 183v92z m4-303h111v-99h-111v99z" horiz-adv-x="1000" />

<glyph glyph-name="brokentape" unicode="&#xe878;" d="M370 358c0-68-55-123-123-123-67 0-122 55-122 123 0 67 55 122 122 122 68 0 123-55 123-122z m415-93c44 0 79 36 79 79 0 44-35 79-79 79-43 0-79-35-79-79 0-43 36-79 79-79z m-360 218l78-49-73-302-17-70h-19-1-18-1-18-1-19-336v576h441 19 4 15 4 15 4 19l-44-70-52-85z m0-58l-83 52 56 91h-328v-436h283l72 293z m575 213v-576h-397-19-1-18-1-18-1-19l17 70 72 293-83 52 56 91 43 70h19 4 15 4 15 4 19 289z m-70-70h-263l-52-85 78-49-73-302h310v436z" horiz-adv-x="1000" />

<glyph glyph-name="specialist" unicode="&#xe879;" d="M95-150h783a95 95 0 0 1 95 95v167a135 135 0 0 1-97 131l-63 19a1139 1139 0 0 1-329 48 1107 1107 0 0 1-321-47l-66-20a135 135 0 0 1-97-131v-168a95 95 0 0 1 95-94z m-11 262a51 51 0 0 0 37 49l67 20a1031 1031 0 0 0 296 45 1054 1054 0 0 0 305-45l63-19a51 51 0 0 0 37-50v-168a11 11 0 0 0-11-11h-783a11 11 0 0 0-11 11z m403 238a250 250 0 1 1-251 250 251 251 0 0 1 251-250z m0 415a166 166 0 1 0-166-166 166 166 0 0 0 166 167z m0-561l40-81 90-13-66-63 16-90-80 42-81-43 16 90-65 63 89 13z" horiz-adv-x="973" />

<glyph glyph-name="consultant" unicode="&#xe87a;" d="M95-150h783a95 95 0 0 1 95 95v167a135 135 0 0 1-97 131l-63 19a1139 1139 0 0 1-329 48 1107 1107 0 0 1-321-47l-66-20a135 135 0 0 1-97-131v-168a95 95 0 0 1 95-94z m-11 262a51 51 0 0 0 37 49l67 20a1031 1031 0 0 0 296 45 1054 1054 0 0 0 305-45l63-19a51 51 0 0 0 37-50v-168a11 11 0 0 0-11-11h-783a11 11 0 0 0-11 11z m403 738a250 250 0 1 1 250-250 251 251 0 0 1-250 250z m0-415a166 166 0 0 0-160 123l105-40a42 42 0 0 1 54 23l4 11a42 42 0 0 1-23 54l-136 52a166 166 0 1 0 156-223z" horiz-adv-x="973" />

<glyph glyph-name="stethoscope" unicode="&#xe87b;" d="M775 298c-85 55-191 31-265 2-13-5-27-11-41-17-95-41-171-68-216-17-4 4-6 8-5 14 3 26 41 67 76 90 2 1 7 5 14 11 53 46 70 57 76 59-1-1-5-1-9-1 147 66 250 213 253 384h0l0 0-135 27-14-70 67-13c-18-104-82-191-170-242-5 0-10-1-15-2-90 50-156 139-175 244l68 13-14 70-135-27 0 0h0c2-143 74-269 184-345-11-9-24-19-38-31-3-3-6-6-6-6-17-12-103-74-112-151-4-30 5-58 25-81 90-102 225-44 315-5 14 6 26 11 38 16 46 18 130 42 187 6 32-21 51-57 51-98 0-42-19-81-52-102-57-38-145-23-223-5-15 62-70 107-136 107-77 0-139-62-139-139 0-77 62-139 139-139 58 0 107 35 128 85 44-10 91-19 137-19 50 0 99 10 142 38 57 38 91 103 90 174 0 71-34 134-90 170z m-379 149c1-3 2-5 3-7-2 0-3 0-5 1 1 2 2 4 2 6z m-28-498c-22 0-39 18-39 40s17 40 39 40c22 0 40-18 40-40s-18-40-40-40z" horiz-adv-x="1000" />

<glyph glyph-name="tags" unicode="&#xe87c;" d="M332 44c-3-4-8-5-10-5-2 0-7 1-10 5l-220 220c-4 3-5 8-5 10s1 6 5 10l298 299c1 0 1 1 2 1l2 2 3 3c1 2 5 6 11 6h43l87 88h-130c-30 0-59-14-78-37 0 0-1 0-1-1l-299-299c-19-19-30-45-30-72s11-53 30-72l220-220c19-20 45-30 72-30 27 0 53 10 72 30l79 79-61 62-80-79z m259-27c-26 0-52 10-72 30l-220 220c-40 40-40 104 0 144l300 300c0 0 0 0 0 0 19 23 48 37 78 37h221c56 0 102-46 102-102v-221c0-30-14-59-37-78 0 0 0 0 0 0l-300-300c-20-20-46-30-72-30z m69 631l-299-299c-6-5-6-15 0-20l220-220c5-6 15-6 20 0l299 299c1 0 1 0 1 1l3 3 3 2c2 1 6 5 6 11v221c0 8-7 15-15 15h-221c-6 0-10-4-11-6l-2-3-3-3c-1 0-1 0-1-1z m117-192c-19 0-36 7-49 20-13 13-20 30-20 49 0 18 7 35 20 48 13 14 30 21 49 21 18 0 35-7 48-21 13-13 21-30 21-48 0-19-8-36-21-49l0 0c0 0 0 0 0 0-13-13-30-20-48-20z m-13 82c-4-4-6-8-6-13 0-5 2-10 6-13 3-4 8-6 13-6 4 0 9 2 13 6 7 7 7 19 0 26-4 3-9 5-13 5-5 0-10-2-13-5z" horiz-adv-x="1000" />

<glyph glyph-name="tape" unicode="&#xe87d;" d="M0-14h1000v728h-1000v-728z m89 639h822v-550h-822v550z m403-265c0-86-69-156-155-156s-155 70-155 156 69 155 155 155 155-70 155-155z m312-17c0-55-44-100-100-100-55 0-99 45-99 100s44 100 99 100c56 0 100-45 100-100z" horiz-adv-x="1000" />

<glyph glyph-name="laptop" unicode="&#xe87e;" d="M930 804h-860c-39 0-70-31-70-69v-616c0-38 31-69 70-69h246 369 245c39 0 70 31 70 69v616c0 38-31 69-70 69z m-15-578h-830v493h830v-493z m85-330h-1000v85h1000v-85z" horiz-adv-x="1000" />

<glyph glyph-name="trash" unicode="&#xe87f;" d="M405 45h-90v418h90z m215 418h-90v-418h90z m271 119h-52v-660a72 72 0 0 0-72-72h-598a72 72 0 0 0-72 72v660h-52a45 45 0 0 0 0 89h263v134a45 45 0 0 0 45 45h230a45 45 0 0 0 44-45v-134h264a45 45 0 0 0 0-89z m-142-13h-563v-630h563z m-351 102h139v90h-139z" horiz-adv-x="935" />

<glyph glyph-name="stopwatch" unicode="&#xe880;" d="M436 723a436 436 0 1 1 437-437 437 437 0 0 1-437 437z m0-797a359 359 0 1 0 359 360 359 359 0 0 0-359-360z m202 595l55-54-253-253-160 160 54 55 106-106z m-101 223h-216v106h216z" horiz-adv-x="872" />

<glyph glyph-name="xing" unicode="&#xe881;" d="M588-150l-223 392 346 608h234l-347-608 223-392z m-368 302l174 286-130 229h-221l130-229-173-286z" horiz-adv-x="944" />

<glyph glyph-name="apple" unicode="&#xe882;" d="M814 117a553 553 0 0 0-69-143c-43-61-85-121-153-123s-89 40-165 40-101-38-164-41-116 66-158 127c-85 124-151 351-64 504a245 245 0 0 0 207 126c64 1 126-43 165-43s114 54 192 46a234 234 0 0 0 183-101 226 226 0 0 1-107-191 221 221 0 0 1 135-202m-263 574a220 220 0 0 1 53 160 223 223 0 0 1-147-76 208 208 0 0 1-53-154 185 185 0 0 1 147 70z" horiz-adv-x="814" />

<glyph glyph-name="cctv" unicode="&#xe883;" d="M873 637h-82-582-81-128v-169h92c2-223 184-405 408-405s406 182 408 405h92v169h-127z m-373-501c-184 0-334 149-335 332h670c-1-183-151-332-335-332z m57 109c0-32-25-58-57-58s-57 26-57 58c0 31 25 57 57 57s57-26 57-57z" horiz-adv-x="1000" />

<glyph glyph-name="instagram" unicode="&#xe884;" d="M500 760c133 0 149 0 202-3a275 275 0 0 0 93-17 153 153 0 0 0 57-38 153 153 0 0 0 38-57 275 275 0 0 0 17-93c2-53 3-69 3-202s0-149-3-202a275 275 0 0 0-17-93 166 166 0 0 0-95-95 275 275 0 0 0-93-17c-53-2-69-3-202-3s-149 0-202 3a275 275 0 0 0-93 17 153 153 0 0 0-57 38 153 153 0 0 0-38 57 275 275 0 0 0-17 93c-2 53-3 69-3 202s0 149 3 202a275 275 0 0 0 17 93 153 153 0 0 0 38 57 153 153 0 0 0 57 38 275 275 0 0 0 93 17c53 2 69 3 202 3m0 90c-136 0-153 0-206-3a368 368 0 0 1-122-24 253 253 0 0 1-146-145 368 368 0 0 1-23-122c-3-53-3-70-3-206s0-153 3-206a368 368 0 0 1 24-122 253 253 0 0 1 145-145 368 368 0 0 1 122-24c53-3 71-3 206-3s153 0 206 3a368 368 0 0 1 122 24 253 253 0 0 1 145 145 368 368 0 0 1 24 122c3 53 3 71 3 206s0 153-3 206a368 368 0 0 1-24 122 253 253 0 0 1-146 146 368 368 0 0 1-121 23c-53 3-70 3-206 3z m0-243a257 257 0 1 1 257-257 257 257 0 0 1-257 257z m0-424a166 166 0 1 0 166 167 166 166 0 0 0-166-167z m267 494a60 60 0 1 1 60-60 60 60 0 0 1-60 60z" horiz-adv-x="1000" />

<glyph glyph-name="mobilephone" unicode="&#xe885;" d="M0 850v-1000h728v1000z m639-89v-644h-550v644z m-213-769a62 62 0 1 0-62 62 62 62 0 0 0 62-62z" horiz-adv-x="728" />

<glyph glyph-name="delivery" unicode="&#xe886;" d="M697 557l101-205h-199l-3 205z m173-555a152 152 0 1 0-151 151 152 152 0 0 0 151-151z m-100 0a52 52 0 1 1-52-52 51 51 0 0 1 52 52z m-297 0a152 152 0 1 0-152 151 152 152 0 0 0 152-151z m-101 0a52 52 0 1 1-51-52 51 51 0 0 1 51 52z m101 106a183 183 0 0 0 32-100h29a186 186 0 0 0 33 98z m515 0l0 292a51 51 0 0 1-5 21l-140 294a50 50 0 0 1-46 29l-103-2v58a50 50 0 0 1-50 50h-548a50 50 0 0 1-50-50l-2-191h-1v-55l0-72 0 0 1-376a50 50 0 0 1-43-50 50 50 0 0 1 50-50h86a184 184 0 0 0 33 100h-26l0 422h0l0 221h451v-58a50 50 0 0 1 15-36 51 51 0 0 1 36-14l119 2 123-255 0-282h-18a182 182 0 0 0 33-100h78a50 50 0 0 1 7 100z" horiz-adv-x="1031" />

<glyph glyph-name="desktop" unicode="&#xe887;" d="M478 609v176h-478v-865h478v145h522v544h-522z m-85-604h-309v696h309v-92h-127v-544h127v-60z m523 144h-438-43-42-43v375h43 42 43 438v-375z m-390-128h213v-106h-213v106z" horiz-adv-x="1000" />

<glyph glyph-name="ssd" unicode="&#xe888;" d="M165 353l48 3a38 38 0 0 1 6-18 27 27 0 0 1 23-10 25 25 0 0 1 17 5 16 16 0 0 1 6 12 16 16 0 0 1-6 11 68 68 0 0 1-25 10 111 111 0 0 0-48 20 41 41 0 0 0-15 32 43 43 0 0 0 7 24 48 48 0 0 0 22 17 104 104 0 0 0 41 7 83 83 0 0 0 48-12 51 51 0 0 0 20-36l-49-3a25 25 0 0 1-7 16 25 25 0 0 1-17 5 20 20 0 0 1-14-4 11 11 0 0 1-4-9 9 9 0 0 1 4-7 44 44 0 0 1 17-6 224 224 0 0 0 47-14 48 48 0 0 0 21-19 44 44 0 0 0 7-25 51 51 0 0 0-9-29 54 54 0 0 0-25-21 99 99 0 0 0-40-6 82 82 0 0 0-58 16 63 63 0 0 0-17 41z m166 0l48 3a38 38 0 0 1 7-18 27 27 0 0 1 22-10 25 25 0 0 1 17 5 15 15 0 0 1 6 12 16 16 0 0 1-6 11 68 68 0 0 1-25 10 110 110 0 0 0-48 20 40 40 0 0 0-15 32 43 43 0 0 0 7 24 51 51 0 0 0 22 17 104 104 0 0 0 41 7 83 83 0 0 0 48-12 51 51 0 0 0 20-36l-48-3a23 23 0 0 1-26 21 20 20 0 0 1-13-4 11 11 0 0 1-4-9 9 9 0 0 1 3-7 46 46 0 0 1 17-6 219 219 0 0 0 48-14 49 49 0 0 0 21-19 46 46 0 0 0 7-25 51 51 0 0 0-9-29 55 55 0 0 0-26-21 99 99 0 0 0-38-6 83 83 0 0 0-58 16 66 66 0 0 0-18 41z m175 110h77a95 95 0 0 0 36-6 60 60 0 0 0 23-17 72 72 0 0 0 13-26 117 117 0 0 0 4-32 109 109 0 0 0-7-41 66 66 0 0 0-16-25 55 55 0 0 0-23-13 127 127 0 0 0-31-5h-76z m51-37v-90h13a49 49 0 0 1 22 3 23 23 0 0 1 11 13 78 78 0 0 1 4 28 55 55 0 0 1-9 36 36 36 0 0 1-28 10z m113 424h-517a153 153 0 0 1-153-153v-695a153 153 0 0 1 153-153h517a153 153 0 0 1 153 153v695a153 153 0 0 1-153 153z m64-848a64 64 0 0 0-64-63h-517a64 64 0 0 0-64 63v695a64 64 0 0 0 64 64h517a64 64 0 0 0 64-64z" horiz-adv-x="822" />

<glyph glyph-name="wet" unicode="&#xe889;" d="M268 31a268 268 0 0 0-268 269 266 266 0 0 0 7 55l2 10c2 10 4 19 113 221 53 96 105 191 106 192l40 72 39-72c63-114 210-381 219-408a173 173 0 0 0 9-63c0-3 0-5 0-7a268 268 0 0 0-267-269z m-170 313l-2-7a182 182 0 0 1-5-37 177 177 0 1 1 354 0v7a79 79 0 0 1-5 34c-10 22-99 187-172 321-81-148-160-293-170-318z m342-3z m274-491a157 157 0 0 0-156 157 163 163 0 0 0 4 32 31 31 0 0 1 0 4c2 9 3 17 112 214l40 72 39-72c105-191 110-204 111-208h0a111 111 0 0 0 7-40v-3a157 157 0 0 0-157-156z m-63 172v0a76 76 0 0 1-2-15 66 66 0 0 1 131 0v4a20 20 0 0 1 0 9c-5 11-32 62-65 121-31-57-57-106-64-119z m129-4z m-130 1z m129 0v0z" horiz-adv-x="871" />

<glyph glyph-name="yen" unicode="&#xe88a;" d="M462 189h-115v45h115v31l-14 25h-101v43h75l-151 255h90l142-261 139 261h85l-146-255h76v-44h-103l-15-25v-31h118v-44h-117v-129h-78z m38-339a500 500 0 1 1-500 500 501 501 0 0 1 500-500z m0 911a411 411 0 1 0-411-411 412 412 0 0 0 411 411z" horiz-adv-x="1000" />

<glyph glyph-name="coffee" unicode="&#xe88b;" d="M770 421h-96v103h-674v-517a157 157 0 0 1 157-157h360a157 157 0 0 1 156 153h97a91 91 0 0 1 92 91v235a91 91 0 0 1-92 92z m-172 0v-414a82 82 0 0 0-82-82h-359a82 82 0 0 0-82 82v441h522z m188-327a16 16 0 0 0-16-16h-96v268h96a16 16 0 0 0 16-16z m-471 584l-59 41 79 131 65-39-43-71 62-43-83-121-61 41z m-30-628h-58v268h58v-111l103 111h77l-118-124 129-144h-83l-108 127z" horiz-adv-x="862" />

<glyph glyph-name="panels" unicode="&#xe88c;" d="M88 603l111-94v-473l-111 94v473m-88 187v-697l287-243v697l-287 243z m235 30v-167l88-75v56l111-95v-473l-109 93v-111l197-168v697z m236 30v-167l87-74v55l112-95v-472l-110 92v-111l197-168v697z" horiz-adv-x="757" />

<glyph glyph-name="externalhd" unicode="&#xe88d;" d="M656 521c3-2 4-5 4-9 0-4-1-7-4-10-3-2-8-3-15-3h-20v26h20c7 0 12-1 15-4z m-5 32c3 2 4 5 4 9 0 4-1 7-4 9-2 2-6 3-12 3h-18v-25h17c6 0 11 1 13 4z m180 191v-590c0-59-48-106-106-106h-202c1-7 2-14 5-20 16-47 60-78 107-81l-9 26 123 41 42-123-123-41-9 25c-5 0-11 0-16 0-81 0-156 50-183 129-5 14-8 29-10 43h-174c-59 0-106 48-106 106v591c0 58 47 106 106 106h449c58 0 106-48 106-106z m-407-144h-40v-79c0-7-2-12-6-16-4-4-9-6-16-6-7 0-12 2-16 6-4 4-6 9-6 16v79h-40v-77c0-6 1-13 4-22 1-5 4-10 8-15 4-4 9-8 14-11 5-2 11-4 18-5 8-1 15-1 21-1 11 0 20 1 28 4 6 2 11 6 16 11 5 5 9 11 11 18 3 6 4 14 4 21v77z m136-87c0 7-1 13-5 19-3 6-9 11-16 14-8 4-20 8-38 12-7 1-11 3-13 5-2 1-3 3-3 5 0 3 1 5 3 7 3 2 6 3 11 3 6 0 10-1 13-4 3-2 6-7 7-13l37 3c-1 13-7 23-15 29-9 6-22 9-38 9-14 0-24-2-32-5-8-3-13-8-17-14-4-6-6-12-6-19 0-10 4-18 11-25 8-6 20-11 38-15 10-3 17-5 20-8 3-2 5-5 5-9 0-3-2-6-5-9-3-3-8-4-13-4-8 0-14 3-18 8-2 3-4 8-5 14l-38-3c1-13 6-23 15-32s23-12 45-12c13 0 23 1 31 5 8 4 15 9 19 16 5 7 7 15 7 23z m140-5c0 8-2 15-7 20-4 6-11 9-20 12 6 2 11 5 14 8 5 6 7 12 7 20 0 9-3 17-10 23-7 6-16 9-29 9h-75v-129h69c3 0 9 1 18 2 7 1 12 2 15 4 6 3 10 7 13 13 3 5 5 11 5 18z" horiz-adv-x="1000" />

<glyph glyph-name="sdcard" unicode="&#xe88e;" d="M829 850h-761v-1000h864v842l-103 158z m-591-246h-75v176h75v-176z m138 0h-75v176h75v-176z m138 0h-75v176h75v-176z m138 0h-75v176h75v-176z m138 0h-75v176h75v-176z" horiz-adv-x="1000" />

<glyph glyph-name="unknownmedia" unicode="&#xe88f;" d="M759 850h-518c-84 0-152-68-152-152v-641c0-1 0-1 0-1v-54c0-84 68-152 152-152h0 518c84 0 152 68 152 152v696c0 84-68 152-152 152z m64-848c0-35-29-63-64-63h-518c-35 0-63 28-63 63v696c0 35 28 63 63 63h518c35 0 63-28 63-63v-696z m-151 450c0-18-5-35-15-51-10-17-29-37-60-60-20-17-34-30-39-40-6-10-8-23-8-40h-118v12c0 20 2 37 6 49 5 13 12 24 21 34 9 11 29 29 61 55 16 14 25 26 25 38 0 11-4 20-10 26-7 7-17 10-31 10-15 0-27-5-36-15-10-9-16-26-19-51l-121 15c5 44 21 80 49 107 28 27 71 41 129 41 45 0 81-10 109-28 38-26 57-60 57-102z m-245-222h127v-112h-127v112z" horiz-adv-x="1000" />

<glyph glyph-name="puzzle" unicode="&#xe890;" d="M563 90c0-65-53-118-119-118v-122h-444v443h119c0-66 53-118 118-118s119 52 119 118h88v-85c66 0 119-53 119-118z m78 203h-85v-89c65 0 118-53 118-118s-53-118-118-118v-118h444v443h-122c0 65-53 117-118 117s-119-52-119-117z m-85 200v-85h88c0 65 53 117 119 117s118-52 118-117h119v442l-444 0v-122c-66 0-119-52-119-117s53-118 119-118z m-197-85h85v88c-65 0-118 53-118 118s53 118 118 118v118l-444 0 0-442h122c0-66 53-118 119-118s118 52 118 118z" horiz-adv-x="1000" />

<glyph glyph-name="folder" unicode="&#xe891;" d="M1026 735h-504l-57 78a92 92 0 0 1-73 37h-300a93 93 0 0 1-92-93v-814a93 93 0 0 1 92-93h934a93 93 0 0 1 92 93v699a93 93 0 0 1-92 93z m-7-784h-921v798h290l84-114h547z" horiz-adv-x="1118" />

<glyph glyph-name="addfolder" unicode="&#xe892;" d="M756 243h-147v-148h-100v148h-148v100h148v147h100v-147h147z m362 399v-699a93 93 0 0 0-92-93h-934a93 93 0 0 0-92 93v814a93 93 0 0 0 92 93h300a92 92 0 0 0 73-37l57-78h504a93 93 0 0 0 92-93z m-99-8h-547l-84 115h-290v-798h920z" horiz-adv-x="1118" />

<glyph glyph-name="addfile" unicode="&#xe893;" d="M861 684l-165 165h-696v-999h861z m-199 74l101-101h-101z m110-820h-683v823h484v-192h199z m-165 367h-132v-132h-89v133h-132v88h132v132h89v-132h132z" horiz-adv-x="860" />

<glyph glyph-name="play" unicode="&#xe894;" d="M500-150c276 0 500 224 500 500 0 276-224 500-500 500-276 0-500-224-500-500 0-276 224-500 500-500z m0 911c227 0 411-184 411-411s-184-411-411-411c-227 0-411 184-411 411s184 411 411 411z m-130-201l390-210-390-210v420z" horiz-adv-x="1000" />

<glyph glyph-name="inclusion" unicode="&#xe895;" d="M890 254l110 49-65 44c92 248-66 452-254 452-66 0-136-25-200-81-64 56-133 81-199 81-298 0-520-510 199-897 102 54 185 112 252 170 22 20 43 39 62 59-27 23-50 43-69 59-61 54-80 68-80 68 7 14 12 25 15 34 4 10 7 23 11 39l-73 19c-3-12-7-24-12-36-17 17-35 35-51 55 20 15 34 27 41 35 8 8 15 18 20 30 5 12 8 26 8 39 0 25-9 45-27 63-18 18-46 26-84 26-37 0-64-9-83-27-18-18-27-42-27-70 0-14 2-27 7-40 4-13 13-28 25-46-29-14-50-31-63-51-13-21-19-42-19-65 0-31 10-59 32-81 22-22 56-33 101-33 29 0 54 4 77 12 16 6 32 15 48 28 8-5 17-12 27-19 5-4 11-9 45-38-52-44-114-87-183-127-75 43-141 90-196 138-58 51-103 104-136 157-67 110-65 198-51 252 11 47 36 86 71 115 33 27 72 42 113 42h0c48 0 96-21 140-59l59-53 60 53c43 38 92 59 140 59 41 0 79-15 113-42 34-28 59-68 71-115 9-36 13-89-7-154l-51 35-7-220 90 41c0-1 0-1 0-1 0 0 0 1 0 1z m-415 239c6 6 14 10 23 10 10 0 18-3 23-9s9-13 9-22c0-8-4-16-10-26-7-9-16-17-28-25-17 21-26 38-26 49 0 8 3 16 9 23z m3-273c-15 0-28 6-37 16-10 10-15 22-15 36 0 8 2 16 7 24 4 8 13 17 25 28 32-35 57-62 77-80-21-16-40-24-57-24z" horiz-adv-x="1000" />
</font>
</defs>
</svg>
